Welcome Guest ( Log In | Register )

> Releases Upload / Добавление релизов

Добавить релиз тут / Click here to add release
Рекомендованные обменники / Recommended file shares

> Astral Moon - Into Solar Abyss (2023), Doom Metal
post Jan 25 2023, 04:54:16
Post #1

Правь статус, ####!111
**************
Group: Металариец
Posts: 31,432
Releases: 23178
From: Г.Харьков
On Forums: 10 years 8 months
Thanks: 487792 time(s)
Ukraine


(IMG:http://metalarea.org/images/audiocovers/2023_Jan/acov_tid375740_thumb.jpg)

*Artist: Astral Moon
*Album: Into Solar Abyss
*Year: 2023
*Genre: Doom Metal
*Country: United States (IMG:http://metalarea.org/forum/style_images/flags/United%20States.png)
*Format: mp3@CBR320kbps
*Size: 121MB

Tracklist:
1. Astralnaut 01:01 instrumental
2. Intergalactic War 05:01
3. Nuclear Sarcophagus 07:16
4. Oscillation Days 04:58
5. Into Solar Abyss 07:25
6. Noxious Sunlight 06:10
7. Cosmic Wasteworld 01:04 instrumental
8. Arise, the Obelisk 06:25
9. Beneath the Coffin Grain 06:41
10. Proxima Centauri (feat. Count Witchfinder) 06:52
******************************
Total playing time: 52:53



Extended info
Aidan Amy Everything (2020-present)
See also: Ram's Head, ex-Sister Constriction


Technical info
(IMG:http://metalarea.org/images/spectrogram/2023_Jan/774c3cea991131428c0d3eceffda2e9b.png)
Input File: 08 - Arise, the Obelisk.mp3
Channels : 2
Sample Rate : 44100
Precision : 16-bit
Duration : 00:06:26.27 = 17034551 samples = 28970.3 CDDA sectors
File Size : 15.5M
Bit Rate : 320k
Sample Encoding: MPEG audio (layer I, II or III)
Comments :
Title=Arise, the Obelisk
Artist=Astral Moon
Album=Into Solar Abyss
Tracknumber=8
Year=2023



Register


Go to the top of the page
  Insert nick Quick quote
+Quote Post
 
Start new topic
Replies (1 - 3)
post Jan 25 2023, 20:19:41
Post #2

ME[ta]LLOMAN
**************
Group: Металариец
Posts: 5,063
Releases: 3
From: Avdeyevka
On Forums: 16 years 9 months
Thanks: 2156 time(s)
Honduras


Депешъ варшып (IMG:style_emoticons/default/9.gif)
Go to the top of the page
  Insert nick Quick quote
+Quote Post
post Jan 25 2023, 22:55:37
Post #3

Group: Подсевший
Posts: 32
Releases: 0
On Forums: 3 years 8 months
Thanks: 12 time(s)
Russian Federation


На облоге Смерть из книг Пратчетта? )))
Go to the top of the page
  Insert nick Quick quote
+Quote Post
post Jan 27 2023, 12:16:55
Post #4

Девять Литров
*********
Group: Металариец
Posts: 919
Releases: 0
From: South Of Heaven
On Forums: 15 years 6 months
Thanks: 430 time(s)
Ukraine


" Nuclear Sarcophagus"-весьма интересен, и заглавный, 5-й ,"Into Solar Abyss" ,очень хорош! (IMG:style_emoticons/default/banana.gif)
Релизёру вери сенкс! (IMG:style_emoticons/default/9.gif) (IMG:style_emoticons/default/9.gif)
Go to the top of the page
  Insert nick Quick quote
+Quote Post

Reply to this topicStart new topic
2 User(s) are reading this topic (2 Guests and 0 Anonymous Users)
0 Members:

 



- Lo-Fi Version Support form
Copyrights and abuse reports form
Time is now: 5th February 2023 - 18:10:03