Welcome Guest ( Log In | Register )

> Releases Upload / Добавление релизов

Добавить релиз тут / Click here to add release
Рекомендованные обменники / Recommended file shares

 
Reply to this topicStart new topic
> Coldest Domain - Frostean (2023), Atmospheric Black Metal
post Jan 25 2023, 14:24:42
Post #1

Правь статус, ####!111
**************
Group: Металариец
Posts: 4,808
Releases: 3238
On Forums: 12 years 2 months
Thanks: 58407 time(s)
Russian Federation


(IMG:https://metalarea.org/images/audiocovers/2023_Jan/acov_tid375753_thumb.jpg)

*Artist: Coldest Domain
*Album: Frostean
*Year: 2023
*Genre: Atmospheric Black Metal
*Country: Indonesia (IMG:https://metalarea.org/forum/style_images/flags/Indonesia.png)
*Format: mp3@CBR320kbps
*Size: 74MB

Tracklist:
01.Frostean 06:15
02.Cold the Descending 06:39
03.Ordered to Suffer 05:51
04.Nekrosis Biosfer 13:00
******************************
Total playing time: 31:45

(IMG:https://metalarea.org/images/youtube.png)

Technical info
(IMG:https://metalarea.org/images/spectrogram/2023_Jan/28dba52cb5339a7d205613857aa8c230.png)
Input File: 03 - Ordered to Suffer.mp3
Channels : 2
Sample Rate : 44100
Precision : 16-bit
Duration : 00:05:51.11 = 15483863 samples = 26333.1 CDDA sectors
File Size : 15.3M
Bit Rate : 349k
Sample Encoding: MPEG audio (layer I, II or III)
Comments :
Title=Ordered to Suffer
Artist=Coldest Domain
Album=Frostean
Tracknumber=3/4
Year=2022
Discnumber=1/1



Register


Go to the top of the page
  Insert nick Quick quote
+Quote Post

Reply to this topicStart new topic
1 User(s) are reading this topic (1 Guests and 0 Anonymous Users)
0 Members:

 



- Lo-Fi Version Support form
Copyrights and abuse reports form
Time is now: 5th February 2023 - 18:25:51