Welcome Guest ( Log In | Register )

> Releases Upload / Добавление релизов

Добавить релиз тут / Click here to add release
Рекомендованные обменники / Recommended file shares

> Ominous Scriptures - Rituals Of Mass Self​-Ignition (2023), Brutal Death Metal
post Jan 25 2023, 14:44:05
Post #1

Правь статус, ####!111
**************
Group: Металариец
Posts: 31,432
Releases: 23178
From: Г.Харьков
On Forums: 10 years 8 months
Thanks: 487792 time(s)
Ukraine


(IMG:http://metalarea.org/images/audiocovers/2023_Jan/acov_tid375754_thumb.jpg)

*Artist: Ominous Scriptures
*Album: Rituals Of Mass Self​-Ignition
*Year: 2023
*Genre: Brutal Death Metal
*Country: Belarus (IMG:http://metalarea.org/forum/style_images/flags/Belarus.png)
*Format: mp3@CBR320kbps
*Size: 66MB

Tracklist:
1. Demonic Totem I Am
2. Rituals of Mass Self-ignition
3. Enraged
4. Fanning the Flames
5. Serpentine Wisdom
6. Mangled Perception
7. Inhabitant of the Lacrimarium
8. Codex Rescriptus
******************************
Total playing time: 29:08




Extended info
FLAC-Rip
Andrey Pilipenko Bass, Vocals (backing)
See also: ex-Deportation
Sergey Liakh Guitars, Vocals
See also: Dispersed, Relics of Humanity
Paweł Nałęcki Vocals (2015-present)
See also: ex-Relics of Humanity (live)
Alexandr Novitski Drums (2020-present)
Pavel Lapkouski Guitars (2020-present)
See also: Grimentity, Relics of Humanity, ex-Stickoxydal, ex-Downcross



Technical info
(IMG:http://metalarea.org/images/spectrogram/2023_Jan/b60fe7168ff4f2e7954931e5e8835d5a.png)
Input File: 08. Codex Rescriptus.mp3
Channels : 2
Sample Rate : 44100
Precision : 16-bit
Duration : 00:04:37.91 = 12255611 samples = 20842.9 CDDA sectors
File Size : 11.1M
Bit Rate : 320k
Sample Encoding: MPEG audio (layer I, II or III)
Comments :
Title=Codex Rescriptus
Artist=Ominous Scriptures
Album=Rituals of Mass Self​-​Ignition
Tracknumber=8
Year=2023
Genre=Death Metal



Register


Go to the top of the page
  Insert nick Quick quote
+Quote Post
 
Start new topic
Replies (1 - 4)
post Jan 25 2023, 16:58:35
Post #2

Правь статус, ####!111
**************
Group: Металариец
Posts: 31,432
Releases: 23178
From: Г.Харьков
On Forums: 10 years 8 months
Thanks: 487792 time(s)
Ukraine


FLAC (Tracks) 215 mb
Register


Go to the top of the page
  Insert nick Quick quote
+Quote Post
post Jan 27 2023, 18:47:54
Post #3

Три Литра
***
Group: Завсегдатай
Posts: 278
Releases: 0
On Forums: 13 years 2 months
Thanks: 94 time(s)
Russian Federation


По олдскулу, в духе Suffocation


Thanks:
(1) gobblin,
Go to the top of the page
  Insert nick Quick quote
+Quote Post
post Jan 31 2023, 08:39:38
Post #4

...Only Death Is Real...
**************
Group: Металариец
Posts: 3,184
Releases: 23
On Forums: 12 years 6 months
Thanks: 2125 time(s)
Antarctica


Register
Go to the top of the page
  Insert nick Quick quote
+Quote Post
post Jan 31 2023, 09:28:33
Post #5

Два Литра
**
Group: Завсегдатай
Posts: 156
Releases: 5
On Forums: 1 year 6 months
Thanks: 243 time(s)
Unknown


Структурно попроще, чем Suffocation, нет того изящества в риффах, скорее напомнило Deeds Of Flesh на рубеже веков, хотя присутствуют и Саффовские сюжеты, и чем дальше, тем больше (вот прямо сейчас - начало Enraged, где-то я это уже слышал... Brood Of Hatred, конечно).
В моменте всё звучит очень даже хорошо - вроде и внимание держит, и долбит достаточно технично (ударник молоток, хотя и использует стандартные в общем приёмы), замедления тягучие, все дела. При этом имеем мощный и читаемый звук, а также соло-партии - они достаточно мелодичны и прописаны с такими эффектами, как будто лезут к нам на свет из параллельной реальности. Но все пять раз, что слушал, интерес был скорее исследовательский, не вовлеченный в музыку. И после всего кроме риффа по мотивам саффовского Brood Of Hatred особо ничего не вспоминается, какое-то смазанное впечатление.

Но это не отменяет того, что альбом безусловно неплох, даже хорош в своем роде, до топового уровня же не хватает какой-то внутренней сути, до конца оформленной мысли, всё остальное есть, и высокого уровня.


Thanks:
Go to the top of the page
  Insert nick Quick quote
+Quote Post

Reply to this topicStart new topic
1 User(s) are reading this topic (1 Guests and 0 Anonymous Users)
0 Members:

 



- Lo-Fi Version Support form
Copyrights and abuse reports form
Time is now: 5th February 2023 - 18:40:45