Welcome Guest ( Log In | Register )

> Releases Upload / Добавление релизов

Добавить релиз тут / Click here to add release
Рекомендованные обменники / Recommended file shares

> Trastorned - Into The Void (2023), Blackened Thrash Metal
post Jan 25 2023, 15:04:03
Post #1

Правь статус, ####!111
**************
Group: Металариец
Posts: 4,808
Releases: 3238
On Forums: 12 years 2 months
Thanks: 58407 time(s)
Russian Federation


(IMG:https://metalarea.org/images/audiocovers/2023_Jan/acov_tid375755_thumb.jpg)

*Artist: Trastorned
*Album: Into The Void
*Year: 2023
*Genre: Blackened Thrash Metal
*Country: Chile (IMG:https://metalarea.org/forum/style_images/flags/Chile.png)
*Format: mp3@CBR320kbps
*Size: 68MB

Tracklist:
01.Witch Hunt 03:56
02.Metal Violence 03:06
03.Black Fire 03:21
04.Miasma of Death 04:01
05.Into the Void 03:04
06.Dreadful Fate (Interlude) 04:17
07.Insanity 04:29
08.Reborn Through Hate 03:12
******************************
Total playing time: 29:26



Technical info
(IMG:https://metalarea.org/images/spectrogram/2023_Jan/19855d5f938e44fa59dd5e90fbf4e4fe.png)
Input File: 05 - Into the Void.mp3
Channels : 2
Sample Rate : 44100
Precision : 16-bit
Duration : 00:03:05.06 = 8161322 samples = 13879.8 CDDA sectors
File Size : 7.55M
Bit Rate : 326k
Sample Encoding: MPEG audio (layer I, II or III)
Comments :
Title=Into the Void
Artist=Trastorned
Album=Into the Void
Tracknumber=5
Year=2023



Register


Go to the top of the page
  Insert nick Quick quote
+Quote Post
 
Start new topic
Replies (1 - 1)
post Jan 27 2023, 14:35:49
Post #2

Правь статус, ####!111
**************
Group: Металариец
Posts: 31,432
Releases: 23178
From: Г.Харьков
On Forums: 10 years 8 months
Thanks: 487792 time(s)
Ukraine


320 69 mb
Register


Go to the top of the page
  Insert nick Quick quote
+Quote Post

Reply to this topicStart new topic
2 User(s) are reading this topic (2 Guests and 0 Anonymous Users)
0 Members:

 



- Lo-Fi Version Support form
Copyrights and abuse reports form
Time is now: 5th February 2023 - 18:17:18