Welcome Guest ( Log In | Register )

> Releases Upload / Добавление релизов

Добавить релиз тут / Click here to add release
Рекомендованные обменники / Recommended file shares

 
Reply to this topicStart new topic
> Septulchu - Hatred Is My Stamina [ep] (2023), Death/Black Metal (D4)
post Jan 25 2023, 15:25:08
Post #1

Serial Uploader
Group Icon
Group: V.I.P
Posts: 39,559
Releases: 37683
From: Lithuania
On Forums: 14 years 7 months
Thanks: 474252 time(s)
Lithuania


(IMG:https://metalarea.org/images/audiocovers/2023_Jan/acov_tid375756_thumb.png)

*Artist: Septulchu
*Album: Hatred Is My Stamina [ep]
*Year: 2023
*Genre: Death/Black Metal
*Country: Italy (IMG:https://metalarea.org/forum/style_images/flags/Italy.png)
*Format: mp3@CBR320kbps
*Size: 39MB

Tracklist:
1. Abomination Rise (Intro) 01:04
2. Against Black Metal Travesties 04:05
3. Pathetic Minions of Pseudo Evil 02:44
4. Hatred Is My Stamina 04:14
5. I Hate the God Who Loves Me 04:07
******************************
Total playing time: 16:14




Technical info
(IMG:https://metalarea.org/images/spectrogram/2023_Jan/d3b85f73267a94421966b231ab897457.png)
Input File: 02. Against Black Metal Travesties.mp3
Channels : 2
Sample Rate : 44100
Precision : 16-bit
Duration : 00:04:05.46 = 10824786 samples = 18409.5 CDDA sectors
File Size : 9.95M
Bit Rate : 324k
Sample Encoding: MPEG audio (layer I, II or III)
Comments :
Title=Against Black Metal Travesties
Artist=P.C.Odio
Album=SEPTULCHU - Hatred Is My Stamina
Tracknumber=2
Year=2023



Register


Go to the top of the page
  Insert nick Quick quote
+Quote Post

Reply to this topicStart new topic
2 User(s) are reading this topic (2 Guests and 0 Anonymous Users)
0 Members:

 



- Lo-Fi Version Support form
Copyrights and abuse reports form
Time is now: 5th February 2023 - 18:32:21