Welcome Guest ( Log In | Register )

> Releases Upload / Добавление релизов

Добавить релиз тут / Click here to add release
Рекомендованные обменники / Recommended file shares

> Messe Mortuaire - Nocturnal Demonic Visitation [ep] (2022), Death Metal
post Jan 25 2023, 15:34:23
Post #1

Правь статус, 616
**************
Group: Металариец
Posts: 8,570
Releases: 6842
From: 55°35’N 38°08’E
On Forums: 14 years 6 months
Thanks: 123675 time(s)
Russian Federation


(IMG:https://metalarea.org/images/audiocovers/2023_Jan/acov_tid375757_thumb.jpg)

*Artist: Messe Mortuaire
*Album: Nocturnal Demonic Visitation [ep]
*Year: 2022
*Genre: Death Metal
*Country: France (IMG:https://metalarea.org/forum/style_images/flags/France.png)
*Format: mp3@CBR320kbps
*Size: 48MB

Tracklist:
1.Intro: The Devil's Hour 02:10
2.Nocturnal Demonic Visitation 05:12
3.Vampyrum Spectrum 03:53
4.Filius Diaboli 06:38
5.Outro 02:02
******************************
Total playing time: 19:55



(IMG:https://metalarea.org/images/youtube.png)

Extended info
FLAC-Rip


Technical info
(IMG:https://metalarea.org/images/spectrogram/2023_Jan/001335cdc5b12521eb8d8c831ee41b83.png)
Input File: 02 Nocturnal Demonic Visitation.mp3
Channels : 2
Sample Rate : 44100
Precision : 16-bit
Duration : 00:05:12.47 = 13779971 samples = 23435.3 CDDA sectors
File Size : 12.7M
Bit Rate : 326k
Sample Encoding: MPEG audio (layer I, II or III)
Comments :
Title=Nocturnal Demonic Visitation
Artist=MESSE MORTUAIRE
Album=Nocturnal Demonic Visitation
Tracknumber=2
Year=2022
Genre=Death Metal



Register


Go to the top of the page
  Insert nick Quick quote
+Quote Post
 
Start new topic
Replies (1 - 2)
post Jan 28 2023, 08:49:58
Post #2

Правь статус, ####!111
**************
Group: Металариец
Posts: 2,136
Releases: 1
From: APATIN, SERBIA, АПАТИН, СЕРБИЯ
On Forums: 15 years 3 months
Thanks: 6358 time(s)



Flac

Register
Go to the top of the page
  Insert nick Quick quote
+Quote Post
post Jan 28 2023, 11:52:39
Post #3

Шесть Литров
******
Group: Металариец
Posts: 633
Releases: 0
From: Isla de Margarita, Venezuela
On Forums: 4 years 3 weeks
Thanks: 152 time(s)
Venezuela


(IMG:style_emoticons/default/t2017.gif)

very good
Go to the top of the page
  Insert nick Quick quote
+Quote Post

Reply to this topicStart new topic
1 User(s) are reading this topic (1 Guests and 0 Anonymous Users)
0 Members:

 



- Lo-Fi Version Support form
Copyrights and abuse reports form
Time is now: 5th February 2023 - 19:19:25