Welcome Guest ( Log In | Register )

> Releases Upload / Добавление релизов

Добавить релиз тут / Click here to add release
Рекомендованные обменники / Recommended file shares

 
Reply to this topicStart new topic
> Koroidia - Apparitions [ep] (2016), Death Metal
post Jan 25 2023, 15:43:58
Post #1

Правь статус, 616
**************
Group: Металариец
Posts: 8,570
Releases: 6842
From: 55°35’N 38°08’E
On Forums: 14 years 6 months
Thanks: 123677 time(s)
Russian Federation


(IMG:https://metalarea.org/images/audiocovers/2023_Jan/acov_tid375758_thumb.jpg)

*Artist: Koroidia
*Album: Apparitions [ep]
*Year: 2016
*Genre: Death Metal
*Country: United States (IMG:https://metalarea.org/forum/style_images/flags/United%20States.png)
*Format: mp3@CBR320kbps
*Size: 33MB

Tracklist:
1.Storms of Eradication 04:18
2.Sworn to Erase the Scourge 04:32
3.Apparitions 05:03
******************************
Total playing time: 13:53



(IMG:https://metalarea.org/images/youtube.png)

Technical info
(IMG:https://metalarea.org/images/spectrogram/2023_Jan/e9f11acf1115dcc2feceec0257ff238a.png)
Input File: 01 Storms of Eradication.mp3
Channels : 2
Sample Rate : 44100
Precision : 16-bit
Duration : 00:04:18.66 = 11406686 samples = 19399.1 CDDA sectors
File Size : 10.5M
Bit Rate : 323k
Sample Encoding: MPEG audio (layer I, II or III)
Comments :
Title=Storms of Eradication
Artist=Koroidia
Album=Apparitions
Tracknumber=1
Year=2016
Genre=Death Metal



Register


Go to the top of the page
  Insert nick Quick quote
+Quote Post

Reply to this topicStart new topic
1 User(s) are reading this topic (1 Guests and 0 Anonymous Users)
0 Members:

 



- Lo-Fi Version Support form
Copyrights and abuse reports form
Time is now: 5th February 2023 - 19:32:26