Welcome Guest ( Log In | Register )

> Releases Upload / Добавление релизов

Добавить релиз тут / Click here to add release
Рекомендованные обменники / Recommended file shares

 
Reply to this topicStart new topic
> Demonic-Eyed - Demonic​-​Eyed 4 (2022), Thrash Metal/Crust Punk/Hardcore (D4)
post Jan 25 2023, 15:44:35
Post #1

Правь статус, ####!111
**************
Group: Металариец
Posts: 31,432
Releases: 23178
From: Г.Харьков
On Forums: 10 years 8 months
Thanks: 487797 time(s)
Ukraine


(IMG:http://metalarea.org/images/audiocovers/2023_Jan/acov_tid375759_thumb.jpg)

*Artist: Demonic-Eyed
*Album: Demonic​-​Eyed 4
*Year: 2022
*Genre: Thrash Metal/Crust Punk/Hardcore
*Country: Slovakia (IMG:http://metalarea.org/forum/style_images/flags/Slovakia.png)
*Format: mp3@CBR320kbps
*Size: 69MB

Tracklist:
1. Duality 01:50
2. Blood Like Water 02:55
3. Odhoďte zbrane 03:04
4. Inkvizícia 04:00
5. Into the Depths 03:12
6. Ochranca 03:42
7. An Opportunist 04:10
8. Feťák 03:27
9. Wake Up Call 02:49
******************************
Total playing time: 29:09




Extended info
Mishyr Bass
Vlad Es Drums
Luboshio Vocals, Guitars


Technical info
(IMG:http://metalarea.org/images/spectrogram/2023_Jan/624e8caf294ec2feab6ce3c696746eb4.png)
Input File: 07 - An Opportunist.mp3
Channels : 2
Sample Rate : 44100
Precision : 16-bit
Duration : 00:04:10.00 = 11025000 samples = 18750 CDDA sectors
File Size : 10.2M
Bit Rate : 326k
Sample Encoding: MPEG audio (layer I, II or III)
Comments :
Title=An Opportunist
Artist=䐀愀渀渀礀 圀椀氀氀
Album=Demonic Eyed 4
Tracknumber=7
Year=2023-01-09
Genre=Alternative
Discnumber=1



Register


Go to the top of the page
  Insert nick Quick quote
+Quote Post

Reply to this topicStart new topic
2 User(s) are reading this topic (2 Guests and 0 Anonymous Users)
0 Members:

 



- Lo-Fi Version Support form
Copyrights and abuse reports form
Time is now: 5th February 2023 - 19:12:31