Welcome Guest ( Log In | Register )

> Releases Upload / Добавление релизов

Добавить релиз тут / Click here to add release
Рекомендованные обменники / Recommended file shares

 
Reply to this topicStart new topic
> Fractures In The Sky - 50 [ep] (2019), Instrumental/Progressive Metal (D7)
post Jan 25 2023, 15:48:25
Post #1

Serial Uploader
Group Icon
Group: V.I.P
Posts: 39,559
Releases: 37683
From: Lithuania
On Forums: 14 years 7 months
Thanks: 474251 time(s)
Lithuania


(IMG:https://metalarea.org/images/audiocovers/2023_Jan/acov_tid375760_thumb.jpg)

*Artist: Fractures In The Sky
*Album: 50 [ep]
*Year: 2019
*Genre: Instrumental/Progressive Metal
*Country: United Kingdom (IMG:https://metalarea.org/forum/style_images/flags/United%20Kingdom.png)
*Format: mp3@CBR320kbps
*Size: 29MB

Tracklist:
1. Appollonian 04:05
2. T2 04:37
3. Sentinel 04:07
******************************
Total playing time: 12:49


Preview 2

(IMG:https://metalarea.org/images/youtube.png)

Extended info
Exclusive for Metalarea.org


Technical info
(IMG:https://metalarea.org/images/spectrogram/2023_Jan/c23b888f56f86aef934314d7f5e5acc9.png)
Input File: 02. T2.mp3
Channels : 2
Sample Rate : 44100
Precision : 16-bit
Duration : 00:04:37.33 = 12230297 samples = 20799.8 CDDA sectors
File Size : 11.1M
Bit Rate : 321k
Sample Encoding: MPEG audio (layer I, II or III)
Comments :
Title=T2
Artist=Fractures in the Sky
Album=50
Tracknumber=1
Year=2019



Register


Go to the top of the page
  Insert nick Quick quote
+Quote Post

Reply to this topicStart new topic
2 User(s) are reading this topic (2 Guests and 0 Anonymous Users)
0 Members:

 



- Lo-Fi Version Support form
Copyrights and abuse reports form
Time is now: 5th February 2023 - 18:22:42