Welcome Guest ( Log In | Register )

> Releases Upload / Добавление релизов

Добавить релиз тут / Click here to add release
Рекомендованные обменники / Recommended file shares

 
Reply to this topicStart new topic
> Fractures In The Sky - Rapture [ep] (2018), Instrumental/Progressive Metal (D7)
post Jan 25 2023, 16:00:47
Post #1

Serial Uploader
Group Icon
Group: V.I.P
Posts: 39,559
Releases: 37683
From: Lithuania
On Forums: 14 years 7 months
Thanks: 474253 time(s)
Lithuania


(IMG:https://metalarea.org/images/audiocovers/2023_Jan/acov_tid375761_thumb.jpg)

*Artist: Fractures In The Sky
*Album: Rapture [ep]
*Year: 2018
*Genre: Instrumental/Progressive Metal
*Country: United Kingdom (IMG:https://metalarea.org/forum/style_images/flags/United%20Kingdom.png)
*Format: mp3@CBR320kbps
*Size: 48MB

Tracklist:
1. Rapture 01:56
2. The Impossible City 03:25
3. Cohen 03:40
4. Requiem for Andrew Ryan 01:16
5. The Protector 03:11
6. Suchong/Tenenbaum 04:23
7. Altruism 02:55
******************************
Total playing time: 20:46


Preview 2


(IMG:https://metalarea.org/images/youtube.png)

Technical info
(IMG:https://metalarea.org/images/spectrogram/2023_Jan/d6070806351906cad9017cfa5ae9d95b.png)
Input File: 02. The Impossible City.mp3
Channels : 2
Sample Rate : 44100
Precision : 16-bit
Duration : 00:03:25.36 = 9056332 samples = 15401.9 CDDA sectors
File Size : 8.32M
Bit Rate : 324k
Sample Encoding: MPEG audio (layer I, II or III)
Comments :
Title=The Impossible City
Artist=Fractures In The Sky
Album=Rapture
Tracknumber=2
Year=2018



Register


Go to the top of the page
  Insert nick Quick quote
+Quote Post

Reply to this topicStart new topic
1 User(s) are reading this topic (1 Guests and 0 Anonymous Users)
0 Members:

 



- Lo-Fi Version Support form
Copyrights and abuse reports form
Time is now: 5th February 2023 - 19:11:19