Welcome Guest ( Log In | Register )

> Releases Upload / Добавление релизов

Добавить релиз тут / Click here to add release
Рекомендованные обменники / Recommended file shares

 
Reply to this topicStart new topic
> Fractures In The Sky - This Is Halloween [single] (2018), Progressive Metal (D7)
post Jan 25 2023, 16:08:05
Post #1

Serial Uploader
Group Icon
Group: V.I.P
Posts: 39,559
Releases: 37683
From: Lithuania
On Forums: 14 years 7 months
Thanks: 474252 time(s)
Lithuania


(IMG:https://metalarea.org/images/audiocovers/2023_Jan/acov_tid375762_thumb.jpg)

*Artist: Fractures In The Sky
*Album: This Is Halloween [single]
*Year: 2018
*Genre: Progressive Metal
*Country: United Kingdom (IMG:https://metalarea.org/forum/style_images/flags/United%20Kingdom.png)
*Format: mp3@CBR320kbps
*Size: 8MB

Tracklist:
1. This Is Halloween 03:30
******************************
Total playing time: 3:30


Preview 2


(IMG:https://metalarea.org/images/youtube.png)

Technical info
(IMG:https://metalarea.org/images/spectrogram/2023_Jan/080fd134b9960f8b648315dbbb8e4b09.png)
Input File: 01. This Is Halloween (Metal Cover).mp3
Channels : 2
Sample Rate : 44100
Precision : 16-bit
Duration : 00:03:30.98 = 9304042 samples = 15823.2 CDDA sectors
File Size : 8.54M
Bit Rate : 324k
Sample Encoding: MPEG audio (layer I, II or III)
Comments :
Title=This Is Halloween (Metal Cover)
Artist=Fractures In The Sky
Year=2018



Register


Go to the top of the page
  Insert nick Quick quote
+Quote Post

Reply to this topicStart new topic
2 User(s) are reading this topic (2 Guests and 0 Anonymous Users)
0 Members:

 



- Lo-Fi Version Support form
Copyrights and abuse reports form
Time is now: 5th February 2023 - 18:51:19