Welcome Guest ( Log In | Register )

> Releases Upload / Добавление релизов

Добавить релиз тут / Click here to add release
Рекомендованные обменники / Recommended file shares

 
Reply to this topicStart new topic
> Ars Nocturna - 139 [ep] (2023), Death Metal
post Jan 25 2023, 16:16:13
Post #1

Правь статус, ####!111
**************
Group: Металариец
Posts: 4,808
Releases: 3237
On Forums: 12 years 2 months
Thanks: 58404 time(s)
Russian Federation


(IMG:https://metalarea.org/images/audiocovers/2023_Jan/acov_tid375763_thumb.jpg)

*Artist: Ars Nocturna
*Album: 139 [ep]
*Year: 2023
*Genre: Death Metal
*Country: Russian Federation (IMG:https://metalarea.org/forum/style_images/flags/Russian%20Federation.png)
*Format: mp3@CBR320kbps
*Size: 43MB

Tracklist:
1.Храм 03:07
2.Дракон 04:55
3.Земля 03:33
4.Дуат 03:27
5.Машина войны 03:47
******************************
Total playing time: 18:49



Technical info
(IMG:https://metalarea.org/images/spectrogram/2023_Jan/bef754c5523668e6f305b83d84015c06.png)
Input File: 01 - Храм.mp3
Channels : 2
Sample Rate : 44100
Precision : 16-bit
Duration : 00:03:07.81 = 8282289 samples = 14085.5 CDDA sectors
File Size : 7.67M
Bit Rate : 327k
Sample Encoding: MPEG audio (layer I, II or III)
Comments :
Title=Храм
Artist=Ars Nocturna
Album=139
Tracknumber=01
Year=2023
Genre=Death Metal



Register


Go to the top of the page
  Insert nick Quick quote
+Quote Post

Reply to this topicStart new topic
1 User(s) are reading this topic (1 Guests and 0 Anonymous Users)
0 Members:

 



- Lo-Fi Version Support form
Copyrights and abuse reports form
Time is now: 5th February 2023 - 17:28:25