Welcome Guest ( Log In | Register )

Объявления

* gmail.com упорно продолжает считать почту с нас "unsolicited" и отбивает в том числе и письма активации, поэтому просьба использовать альтернативные почтовые ящики.
------------
* gmail.com continues reject all mail from us as "unsolicited" (activation mails too) therefore please use alternate mail servers.
> Ungraceful - Artificial Aberrations (2023), Slamming Brutal Death Metal
post Jan 25 2023, 17:58:27
Post #1

Правь статус, ####!111
**************
Group: Металариец
Posts: 35,961
Releases: 26798
From: Г.Харьков
On Forums: 12 years 2 weeks
Thanks: 581425 time(s)
Ukraine


(IMG:http://metalarea.org/images/audiocovers/2023_Jan/acov_tid375764_thumb.jpg)

*Artist: Ungraceful
*Album: Artificial Aberrations
*Year: 2023
*Genre: Slamming Brutal Death Metal
*Country: United States (IMG:http://metalarea.org/forum/style_images/flags/United%20States.png)
*Format: mp3@CBR320kbps
*Size: 64MB

Tracklist:
1. Adaptive Maintenance 02:44
2. Telekinetic DNA Removal 03:13
3. Schizophrenic Machete Assault 02:34
4. Hook, Line & Sink Her 03:41
5. Micromechanical Neurotorture 03:24
6. Fuck Around And Kill A Tweaker 03:05
7. Signs Were Ignored 02:59
8. Removed From The Earth 02:21
9. There Is No God Here [Redux] 02:48
******************************
Total playing time: 26:49



Extended info
Jake All instruments
Floor van Kuijk Vocals
See also: Carnifloor, Engulfed in Repugnance, Focal Dystonia, FxOxExS, Korpse, Scorbutus, Sijjeel, ex-Dark Reign, ex-RÁN, ex-Fermented Masturbation, ex-Cannibal Camel, ex-Odiado
Azerate Nakamura Vocals (2022-present)
See also: Cephalophore, Paimon, 1-Diazidocarbamoyl-5-azidotetrazole, Darxifer, Glamour Cadaver, Lakeborn, Wakaba


Technical info
(IMG:http://metalarea.org/images/spectrogram/2023_Jan/71982af95608417f051b8e39a9773128.png)
Input File: Ungraceful - UNGRACEFUL - Artificial Aberrations - 05 Micromechanical Neurotorture.mp3
Channels : 2
Sample Rate : 44100
Precision : 16-bit
Duration : 00:03:24.11 = 9001031 samples = 15307.9 CDDA sectors
File Size : 8.42M
Bit Rate : 330k
Sample Encoding: MPEG audio (layer I, II or III)
Comments :
Title=Micromechanical Neurotorture
Artist=Ungraceful
Album=UNGRACEFUL - Artificial Aberrations
Tracknumber=5
Year=2023



Register


Go to the top of the page
  Insert nick Quick quote
+Quote Post
 
Start new topic
Replies (1 - 2)
post Jan 25 2023, 19:52:43
Post #2

Правь статус, ####!111
**************
Group: Металариец
Posts: 35,961
Releases: 26798
From: Г.Харьков
On Forums: 12 years 2 weeks
Thanks: 581425 time(s)
Ukraine


FLAC (Tracks) 351 mb
Register


Go to the top of the page
  Insert nick Quick quote
+Quote Post
post Aug 28 2023, 09:02:42
Post #3

Наливай!
**************
Group: Металариец
Posts: 6,428
Releases: 27
From: Москва-Бибирево
On Forums: 16 years 2 months
Thanks: 3341 time(s)
Russian Federation


Перезалейте
Go to the top of the page
  Insert nick Quick quote
+Quote Post

Reply to this topicStart new topic
1 User(s) are reading this topic (1 Guests and 0 Anonymous Users)
0 Members:

 



- Lo-Fi Version Support form
Copyrights and abuse reports form
Time is now: 29th May 2024 - 10:00:41