Welcome Guest ( Log In | Register )

> Releases Upload / Добавление релизов

Добавить релиз тут / Click here to add release
Рекомендованные обменники / Recommended file shares

> Blood Gnosis - Songs For The Cruel Aeon (2023), Gothic/Black Metal
post Jan 25 2023, 18:18:26
Post #1

Правь статус, ####!111
**************
Group: Металариец
Posts: 31,432
Releases: 23178
From: Г.Харьков
On Forums: 10 years 8 months
Thanks: 487791 time(s)
Ukraine


(IMG:http://metalarea.org/images/audiocovers/2023_Jan/acov_tid375765_thumb.jpg)

*Artist: Blood Gnosis
*Album: Songs For The Cruel Aeon
*Year: 2023
*Genre: Gothic/Black Metal
*Country: United Kingdom (IMG:http://metalarea.org/forum/style_images/flags/United%20Kingdom.png)
*Format: mp3@CBR320kbps
*Size: 151MB

Tracklist:
1. The March of Becoming 06:18
2. The Three Misbirths 07:51
3. The Child's First Kicks 03:01 instrumental
4. Atrocities of Form 07:30
5. Thirst for Annihilation 10:38
6. The Last Man 04:02
7. The Day of Wrath 10:59
8. Blood-Soaked Divinity 04:49
9. Being 10:04 instrumental
******************************
Total playing time: 1:05:12




Extended info
Rachel Prentice - Song writing, Vocals, Guitars
Graham Prentice - Bass, Keyboards, Drum Programming, Production


Technical info
(IMG:http://metalarea.org/images/spectrogram/2023_Jan/d99aa45b6f22dd4b7013f85b6086574e.png)
Input File: 07 - The Day of Wrath.mp3
Channels : 2
Sample Rate : 44100
Precision : 16-bit
Duration : 00:10:59.00 = 29061900 samples = 49425 CDDA sectors
File Size : 26.6M
Bit Rate : 323k
Sample Encoding: MPEG audio (layer I, II or III)
Comments :
Title=The Day of Wrath
Artist=Blood Gnosis
Album=Songs For The Cruel Aeon
Tracknumber=7
Year=2023-01-23
Genre=Alternative
Discnumber=1



Register


Go to the top of the page
  Insert nick Quick quote
+Quote Post
 
Start new topic
Replies (1 - 1)
post Jan 25 2023, 19:54:10
Post #2

Правь статус, ####!111
**************
Group: Металариец
Posts: 31,432
Releases: 23178
From: Г.Харьков
On Forums: 10 years 8 months
Thanks: 487791 time(s)
Ukraine


FLAC (Tracks) 451 mb
Register


Thanks:
(1) suseka,
Go to the top of the page
  Insert nick Quick quote
+Quote Post

Reply to this topicStart new topic
1 User(s) are reading this topic (1 Guests and 0 Anonymous Users)
0 Members:

 



- Lo-Fi Version Support form
Copyrights and abuse reports form
Time is now: 5th February 2023 - 17:55:55