Welcome Guest ( Log In | Register )

> Releases Upload / Добавление релизов

Добавить релиз тут / Click here to add release
Рекомендованные обменники / Recommended file shares

> Nigromancia - Hidden Rituals [ep] (2021), Death/Thrash Metal
post Jan 25 2023, 18:21:36
Post #1

Правь статус, 616
**************
Group: Металариец
Posts: 8,570
Releases: 6842
From: 55°35’N 38°08’E
On Forums: 14 years 6 months
Thanks: 123672 time(s)
Russian Federation


(IMG:https://metalarea.org/images/audiocovers/2023_Jan/acov_tid375766_thumb.jpg)

*Artist: Nigromancia
*Album: Hidden Rituals [ep]
*Year: 2021
*Genre: Death/Thrash Metal
*Country: Chile (IMG:https://metalarea.org/forum/style_images/flags/Chile.png)
*Format: mp3@CBR320kbps
*Size: 58MB

Tracklist:
1.Necromancy 03:51
2.Vomiting Death 03:55
3.Hidden Rituals 03:14
4.Only Death Is Real 03:41
5.Voices from the Underworld 04:14
6.Flame of Death 05:31
******************************
Total playing time: 24:26



(IMG:https://metalarea.org/images/youtube.png)

Technical info
(IMG:https://metalarea.org/images/spectrogram/2023_Jan/eee3c2ebcddaa26564f03c89dd390b24.png)
Input File: 01 Necromancy.mp3
Channels : 2
Sample Rate : 44100
Precision : 16-bit
Duration : 00:03:51.59 = 10213163 samples = 17369.3 CDDA sectors
File Size : 9.42M
Bit Rate : 325k
Sample Encoding: MPEG audio (layer I, II or III)
Comments :
Title=Necromancy
Artist=Nigromancia
Album=Hidden Rituals
Tracknumber=1
Year=2021
Genre=Death Metal



Register


Go to the top of the page
  Insert nick Quick quote
+Quote Post
 
Start new topic
Replies (1 - 1)
post Jan 26 2023, 13:53:25
Post #2

Мегаманьяк
***********
Group: Металариец
Posts: 1,732
Releases: 14
From: Москва
On Forums: 14 years 10 months
Thanks: 1100 time(s)
Antarctica


Тот самый случай, когда название группы продаёт релиз. Ну как продаёт, вызывает интерес чекнуть хотя бы на бэндкампе.
Go to the top of the page
  Insert nick Quick quote
+Quote Post

Reply to this topicStart new topic
2 User(s) are reading this topic (2 Guests and 0 Anonymous Users)
0 Members:

 



- Lo-Fi Version Support form
Copyrights and abuse reports form
Time is now: 5th February 2023 - 17:33:07