Welcome Guest ( Log In | Register )

> Releases Upload / Добавление релизов

Добавить релиз тут / Click here to add release
Рекомендованные обменники / Recommended file shares

> Applewhite - Perversions Of Flesh And Soul [demo] (2023), Black Metal
post Jan 25 2023, 18:30:59
Post #1

Правь статус, ####!111
**************
Group: Металариец
Posts: 5,958
Releases: 5460
From: Одесса
On Forums: 14 years 8 months
Thanks: 63834 time(s)
Ukraine


(IMG:http://metalarea.org/images/audiocovers/2023_Jan/acov_tid375768_thumb.jpg)

*Artist: Applewhite
*Album: Perversions Of Flesh And Soul [demo]
*Year: 2023
*Genre: Black Metal
*Country: New Zealand (IMG:http://metalarea.org/forum/style_images/flags/New%20Zealand.png)
*Format: mp3@CBR320kbps
*Size: 58MB

Tracklist:
1. Binding the Flesh as Child 06:09
2. Involuntary Death Obsession 09:44
3. Silence Is Infinite 06:04
4. God Proposes, Man Disposes 02:47
******************************
Total playing time: 24:44



Technical info
(IMG:http://metalarea.org/images/spectrogram/2023_Jan/695092a911ef3394164e5cc2563a1d44.png)
Input File: 01. Binding the Flesh as Child.mp3
Channels : 2
Sample Rate : 44100
Precision : 16-bit
Duration : 00:06:09.63 = 16300683 samples = 27722.2 CDDA sectors
File Size : 14.9M
Bit Rate : 322k
Sample Encoding: MPEG audio (layer I, II or III)
Comments :
Title=Binding the Flesh as Child
Artist=Applewhite
Album=Perversions of Flesh and Soul (Demo)
Tracknumber=1
Year=2023
Genre=138



Register


Go to the top of the page
  Insert nick Quick quote
+Quote Post
 
Start new topic
Replies (1 - 1)
post Jan 26 2023, 16:31:32
Post #2

Правь статус, ####!111
**************
Group: Металариец
Posts: 52,698
Releases: 967
On Forums: 13 years 8 months
Thanks: 49481 time(s)
Russian Federation


Самые вкусные - это зелёные кислые яблоки. (IMG:style_emoticons/default/genius.gif)
Go to the top of the page
  Insert nick Quick quote
+Quote Post

Reply to this topicStart new topic
1 User(s) are reading this topic (1 Guests and 0 Anonymous Users)
0 Members:

 



- Lo-Fi Version Support form
Copyrights and abuse reports form
Time is now: 5th February 2023 - 18:34:04