Welcome Guest ( Log In | Register )

Объявления

* gmail.com упорно продолжает считать почту с нас "unsolicited" и отбивает в том числе и письма активации, поэтому просьба использовать альтернативные почтовые ящики.
------------
* gmail.com continues reject all mail from us as "unsolicited" (activation mails too) therefore please use alternate mail servers.
> Oozing Wound - We Cater To Cowards (2023), Thrash Metal/Crossover
post Jan 26 2023, 17:15:17
Post #1

Правь статус, ####!111
**************
Group: Металариец
Posts: 35,941
Releases: 26785
From: Г.Харьков
On Forums: 12 years 2 weeks
Thanks: 581060 time(s)
Ukraine


(IMG:http://metalarea.org/images/audiocovers/2023_Jan/acov_tid375815_thumb.jpg)

*Artist: Oozing Wound
*Album: We Cater To Cowards
*Year: 2023
*Genre: Thrash Metal/Crossover
*Country: United States (IMG:http://metalarea.org/forum/style_images/flags/United%20States.png)
*Format: mp3@CBR320kbps
*Size: 102MB

Tracklist:
1. Bank Account Anxiety 04:24
2. Total Existence Failure 04:32
3. The Good Times (I Don't Miss 'Em) 04:27
4. Hypnic Jerk 02:03
5. Crypto Fash 04:03
6. Between Cults 05:27
7. Chudly 03:09
8. Midlife Crisis Actor 04:01
9. Old Sludge 04:12
10. Face Without Eyes 04:56
******************************
Total playing time: 41:14




Extended info
Scene
Kevin Cribbin Bass
Zack Weil Guitars, Vocals, Piano
Kyle Reynolds Drums


Technical info
(IMG:http://metalarea.org/images/spectrogram/2023_Jan/f977a77cd42d61abae5df4d22ca9d8f8.png)
Input File: 08-oozing_wound-midlife_crisis_actor-fd26b276.mp3
Channels : 2
Sample Rate : 44100
Precision : 16-bit
Duration : 00:04:01.18 = 10635994 samples = 18088.4 CDDA sectors
File Size : 10.4M
Bit Rate : 346k
Sample Encoding: MPEG audio (layer I, II or III)
Comments :
Title=Midlife Crisis Actor
Artist=Oozing Wound
Album=We Cater To Cowards
Tracknumber=8/10
Year=2023
Genre=Thrash Metal



Register


Go to the top of the page
  Insert nick Quick quote
+Quote Post
 
Start new topic
Replies (1 - 5)
post Jan 27 2023, 14:48:36
Post #2

? ? ? ? ? ? ?
********
Group: Металариец
Posts: 833
Releases: 25
On Forums: 17 years 3 months
Thanks: 636 time(s)
Russian Federation


Ссылку надо оживить.


Go to the top of the page
  Insert nick Quick quote
+Quote Post
post Jan 28 2023, 18:39:57
Post #3

Литр
*
Group: Подсевший
Posts: 71
Releases: 0
On Forums: 2 years 1 month
Thanks: 18 time(s)
Unknown


Can you please reupload it again?
Go to the top of the page
  Insert nick Quick quote
+Quote Post
post Jan 28 2023, 19:07:51
Post #4

Правь статус, ####!111
**************
Group: Металариец
Posts: 35,941
Releases: 26785
From: Г.Харьков
On Forums: 12 years 2 weeks
Thanks: 581060 time(s)
Ukraine


ЦИТАТА(Ignativs @ Jan 28 2023, 19:39:57) *
Can you please reupload it again?

320
Register
Go to the top of the page
  Insert nick Quick quote
+Quote Post
post Jan 28 2023, 19:45:26
Post #5

Четыре Литра
****
Group: Металариец
Posts: 380
Releases: 0
From: USA
On Forums: 15 years 2 weeks
Thanks: 229 time(s)
United States


Still dead?


Thanks:
(1) Ignativs,
Go to the top of the page
  Insert nick Quick quote
+Quote Post
post Jan 28 2023, 21:02:14
Post #6

Литр
*
Group: Подсевший
Posts: 71
Releases: 0
On Forums: 2 years 1 month
Thanks: 18 time(s)
Unknown


QUOTE(Samaritianin @ Jan 28 2023, 19:07:51) *
320


Sorry, but if I'm not wrong this is the original link and it's not working yet, at least for me and other users.
Go to the top of the page
  Insert nick Quick quote
+Quote Post

Reply to this topicStart new topic
2 User(s) are reading this topic (2 Guests and 0 Anonymous Users)
0 Members:

 



- Lo-Fi Version Support form
Copyrights and abuse reports form
Time is now: 26th May 2024 - 10:41:45