Welcome Guest ( Log In | Register )

Объявления

* gmail.com упорно продолжает считать почту с нас "unsolicited" и отбивает в том числе и письма активации, поэтому просьба использовать альтернативные почтовые ящики.
------------
* gmail.com continues reject all mail from us as "unsolicited" (activation mails too) therefore please use alternate mail servers.
> Glyph - The Time Of Peril (2023), Black Metal
post Jan 26 2023, 23:36:07
Post #1

Правь статус, ####!111
**************
Group: Металариец
Posts: 35,634
Releases: 26525
From: Г.Харьков
On Forums: 11 years 11 months
Thanks: 573591 time(s)
Ukraine


(IMG:http://metalarea.org/images/audiocovers/2023_Jan/acov_tid375835_thumb.jpg)

*Artist: Glyph
*Album: The Time Of Peril
*Year: 2023
*Genre: Black Metal
*Country: United States (IMG:http://metalarea.org/forum/style_images/flags/United%20States.png)
*Format: mp3@CBR320kbps
*Size: 85MB

Tracklist:
1. Of the Balance 03:49
2. Shadows Amass 03:50
3. The Folly of Sentiment and the Folly of Anger 03:49
4. Call Forth Fury 04:24
5. The Efforts of the Ages Laid Waste 03:28
6. Hearken unto Thy Fearful Heart 02:31
7. When We Looked at Their Ruins 02:38
8. Travesties of the Written Word 05:36
9. On the Last Day 06:40
******************************
Total playing time: 36:45



Extended info
Keeper of the Glyph All instruments, Vocals


Technical info
(IMG:http://metalarea.org/images/spectrogram/2023_Jan/dcc19d1a9043cbb6a2440e67ae6daa75.png)
Input File: 08 - Travesties of the Written Word.mp3
Channels : 2
Sample Rate : 44100
Precision : 16-bit
Duration : 00:05:36.00 = 14817600 samples = 25200 CDDA sectors
File Size : 13.5M
Bit Rate : 322k
Sample Encoding: MPEG audio (layer I, II or III)
Comments :
Title=Travesties of the Written Word
Artist=Glyph
Album=the time of peril
Tracknumber=8
Year=2023-01-27
Genre=Metal
Discnumber=1



Register


Go to the top of the page
  Insert nick Quick quote
+Quote Post
 
Start new topic
Replies (1 - 1)
post Jan 31 2023, 05:35:38
Post #2

кручу наждак
**************
Group: Металариец
Posts: 6,505
Releases: 110
From: Самара
On Forums: 13 years 11 months
Thanks: 5047 time(s)
Russian Federation


Стало более трублеково.
Не уверен, что в случае сабжа это изменение в лучшую сторону, но альбом хороший.
Go to the top of the page
  Insert nick Quick quote
+Quote Post

Reply to this topicStart new topic
1 User(s) are reading this topic (1 Guests and 0 Anonymous Users)
0 Members:

 



- Lo-Fi Version Support form
Copyrights and abuse reports form
Time is now: 23rd April 2024 - 09:50:41