Welcome Guest ( Log In | Register )

Объявления

* gmail.com упорно продолжает считать почту с нас "unsolicited" и отбивает в том числе и письма активации, поэтому просьба использовать альтернативные почтовые ящики.
------------
* gmail.com continues reject all mail from us as "unsolicited" (activation mails too) therefore please use alternate mail servers.
> Echoes Of Wizard's Chamber - A Tribute To Mortiis [compilation] (2023), Atmospheric Black Metal/Dungeon Synth/Ambient/Neofolk/Modern Classical
post Feb 8 2023, 00:53:11
Post #1

𝕻𝕬𝕹𝕬𝕮𝕰𝕬
**********
Group: Металариец
Posts: 1,242
Releases: 746
On Forums: 12 years 1 month
Thanks: 16158 time(s)
Unknown


(IMG:https://metalarea.org/images/audiocovers/2023_Feb/acov_tid376366_thumb.jpg)

*Artist: Echoes Of Wizard's Chamber
*Album: A Tribute To Mortiis [compilation]
*Year: 2023
*Genre: Atmospheric Black Metal/Dungeon Synth/Ambient/Neofolk/Modern Classical
*Country: International (IMG:https://metalarea.org/forum/style_images/flags/International.png)
*Format: mp3@CBR320kbps
*Size: 202MB

Tracklist:
1. Aeon Winds - Reisene Til Grotter Og Ødemarker 12:48
2. Kalmankantaja - Vandreren´s Sang 07:10
3. Kuggur - Blood And Thunder 05:16
4. Dissvarth - Den Bortdrevne Regnbuen 06:08
5. ELFFOR - I am The World 06:31
6. Dødsfall - En Mørk Horisont 06:17
7. Ceremonial Castings - Født Til Å Herske II pt.V 04:41
8. Silva Nigra - Battles On Ice 03:02
9. Zerivana - Da Vi Bygde Tårnet 07:21
10. Midnight Odyssey - Ferden Og Kallet 06:31
11. Old Tower - The Song Of A Long Forgotten Ghost 03:07
12. Wyrd - Everyone Leaves 05:35
13. Mørkt Tre - Keiser Av En Dimensjon Ukjent 12:28
******************************
Total playing time: 1:26:55



Extended info
Official compilation release authorized by Håvard Ellefsen aka Mortiis, featuring 13 songs, covering the Era 1 years, by artists like Aeon Winds, Old Tower, Midnight Odyssey, Dødsfall, and others.

-Limited Edition Cassette Edition.
-Limited Edition double tribute CD.
The CD comes in a 4 panel foldout digipak with a foil printed slipcase and signed by Mortiis.


Technical info
(IMG:https://metalarea.org/images/spectrogram/2023_Feb/a5ae41ac099c3128f28610eb5dbeefe9.png)
Input File: 12 - Wyrd - Everyone Leaves.mp3
Channels : 2
Sample Rate : 44100
Precision : 16-bit
Duration : 00:05:35.30 = 14786730 samples = 25147.5 CDDA sectors
File Size : 13.6M
Bit Rate : 324k
Sample Encoding: MPEG audio (layer I, II or III)
Comments :
Title=Wyrd - Everyone Leaves
Artist=Mortiis
Album=Echoes Of Wizards Chamber - Tribute to Mortiis
Tracknumber=12
Year=2023



Register


Go to the top of the page
  Insert nick Quick quote
+Quote Post
 
Start new topic
Replies (1 - 2)
post Feb 11 2023, 10:55:31
Post #2

Четыре Литра
****
Group: Металариец
Posts: 388
Releases: 0
On Forums: 14 years 7 months
Thanks: 149 time(s)
Russian Federation


сильный tribute, хорошо сделали


Thanks:
(1) Occultas,
Go to the top of the page
  Insert nick Quick quote
+Quote Post
post Feb 11 2023, 14:34:58
Post #3

Четыре Литра
****
Group: Металариец
Posts: 305
Releases: 1
On Forums: 14 years 8 months
Thanks: 111 time(s)
Russian Federation


Хорошо звучит! (IMG:style_emoticons/default/20.gif)


Thanks:
Go to the top of the page
  Insert nick Quick quote
+Quote Post

Reply to this topicStart new topic
2 User(s) are reading this topic (2 Guests and 0 Anonymous Users)
0 Members:

 



- Lo-Fi Version Support form
Copyrights and abuse reports form
Time is now: 15th July 2024 - 22:15:26