Welcome Guest ( Log In | Register )

> Яма - В​с​е Мы З​д​е​с​ь Б​у​д​е​м (2023), Black Metal
post Feb 9 2023, 15:17:28
Post #1

Слесаръ 6-го разряда.
******
Group: Металариец
Posts: 664
Releases: 388
From: Беларусь, Минск.
On Forums: 12 years 2 months
Thanks: 3872 time(s)
Belarus


(IMG:https://metalarea.org/images/audiocovers/2023_Feb/acov_tid376427_thumb.jpg)

*Artist: Яма
*Album: В​с​е Мы З​д​е​с​ь Б​у​д​е​м
*Year: 2023
*Genre: Black Metal
*Country: Russian Federation (IMG:https://metalarea.org/forum/style_images/flags/Russian%20Federation.png)
*Format: mp3@CBR320kbps
*Size: 62MB

Tracklist:
01. Пред похоронная процессия (intro) 02:40
02. Все мы здесь будем 04:10
03. Тени 04:36
04. Топь 04:50
05. Пустота 04:43
06. Анабиоз 04:00
******************************
Total playing time: 24:59



Technical info
(IMG:https://metalarea.org/images/spectrogram/2023_Feb/a76870845ccf3dae9ba9bc8e44373e1c.png)
Input File: ЯМА - Все мы здесь будем - 02 Все мы здесь будем.mp3
Channels : 2
Sample Rate : 44100
Precision : 16-bit
Duration : 00:04:10.08 = 11028704 samples = 18756.3 CDDA sectors
File Size : 10.2M
Bit Rate : 325k
Sample Encoding: MPEG audio (layer I, II or III)
Comments :
Title=Все мы здесь будем
Artist=ЯМА
Album=Все мы здесь будем
Tracknumber=2
Year=2023



Register


Go to the top of the page
  Insert nick Quick quote
+Quote Post
 
Start new topic
Replies (1 - 10)
post Feb 9 2023, 17:35:53
Post #2

Три Литра
***
Group: Завсегдатай
Posts: 217
Releases: 0
On Forums: 16 years 8 months
Thanks: 150 time(s)
Russian Federation


Есть еще Ovrag (IMG:style_emoticons/default/crazy.gif)


Thanks:
Go to the top of the page
  Insert nick Quick quote
+Quote Post
post Feb 9 2023, 18:59:57
Post #3

Два Литра
**
Group: Завсегдатай
Posts: 107
Releases: 0
On Forums: 6 years 4 months
Thanks: 68 time(s)
Russian Federation


Местечковый такой метал, чисто на сейшне потолкаться. Прям как в святом 2007.
Go to the top of the page
  Insert nick Quick quote
+Quote Post
post Feb 9 2023, 19:01:28
Post #4

Два Литра
**
Group: Завсегдатай
Posts: 129
Releases: 0
On Forums: 17 years 1 week
Thanks: 33 time(s)
Russian Federation


не яМа а дырка просто дупло и дырень
не слушал вот еще....
Go to the top of the page
  Insert nick Quick quote
+Quote Post
post Feb 10 2023, 17:18:40
Post #5

? ? ? ? ? ? ?
********
Group: Металариец
Posts: 825
Releases: 24
On Forums: 17 years 2 weeks
Thanks: 621 time(s)
Russian Federation


Ну уж не совсем плохо.
Но релизёру минус за то, что постоянно файлы в папку не пакует. Хотя пофиг.
Go to the top of the page
  Insert nick Quick quote
+Quote Post
post Feb 14 2023, 07:50:53
Post #6

Маньяк
**********
Group: Металариец
Posts: 1,271
Releases: 0
From: Новосибирск
On Forums: 14 years 6 months
Thanks: 378 time(s)
Russian Federation


"И тебя вылечат, и тебя вылечат, и меня вылечат"(с)
Go to the top of the page
  Insert nick Quick quote
+Quote Post
post Mar 31 2023, 06:00:50
Post #7

i listen to black metal
**************
Group: Металариец
Posts: 4,019
Releases: 150
From: Москва
On Forums: 17 years 2 months
Thanks: 2621 time(s)
Russian Federation


не откровенно ,но хорошо!!!
Go to the top of the page
  Insert nick Quick quote
+Quote Post
post Apr 8 2023, 18:26:23
Post #8

Full-of-Hate
**************
Group: Металариец
Posts: 5,655
Releases: 0
From: Moscow
On Forums: 14 years 8 months
Thanks: 6862 time(s)
Russian Federation


Внезапно понравилось. Аскетичная подача, чувствуется этакий нерв. Понравился сырой звук, но с мощной опорой из неглупых басовых пассажей.
Годная труха, потенциал detected. Надеюсь авторы сего депрессива не вздернутся и "порадуют" еще чем-нибудь.
Go to the top of the page
  Insert nick Quick quote
+Quote Post
post Apr 8 2023, 18:41:49
Post #9

Котеги! Нравяцо котеги?
**************
Group: Металариец
Posts: 8,084
Releases: 0
From: Терра Инкогнита
On Forums: 13 years 9 months
Thanks: 3846 time(s)
Russian Federation


ЦИТАТА(SSWolf88 @ 14th February 2023 - 09:50:53) *
и меня вылечат

есть определённые сомнения


Thanks:
Go to the top of the page
  Insert nick Quick quote
+Quote Post
post Apr 8 2023, 19:03:33
Post #10

кручу наждак
**************
Group: Металариец
Posts: 6,431
Releases: 109
From: Самара
On Forums: 13 years 9 months
Thanks: 4968 time(s)
Russian Federation


Музло ещё туда-сюда, но чудовищно невыразительный вокал гробит на корню вообще все, низводя сабж до уровня говнарьского вкбм.
Go to the top of the page
  Insert nick Quick quote
+Quote Post
post Apr 8 2023, 20:49:17
Post #11

Правь статус, ####!111
**************
Group: Металариец
Posts: 2,952
Releases: 12
On Forums: 16 years 7 months
Thanks: 1734 time(s)
Russian Federation


В яму пошли! (с) Классика
Go to the top of the page
  Insert nick Quick quote
+Quote Post

Reply to this topicStart new topic
2 User(s) are reading this topic (2 Guests and 0 Anonymous Users)
0 Members:

 



- Lo-Fi Version Support form
Copyrights and abuse reports form
Time is now: 3rd March 2024 - 00:02:42