Welcome Guest ( Log In | Register )

> 

Здесь релизы с живыми прямыми ссылками на lossless

 
Reply to this topicStart new topic
> Dooms Vain - Demo [demo] (2023), Blackened Gothic/Doom Metal
post Feb 15 2023, 18:57:46
Post #1

Правь статус, ####!111
**************
Group: Металариец
Posts: 6,097
Releases: 5584
From: Одесса
On Forums: 14 years 9 months
Thanks: 65415 time(s)
Ukraine


(IMG:http://metalarea.org/images/audiocovers/2023_Feb/acov_tid376723_thumb.jpg)

*Artist: Dooms Vain
*Album: Demo [demo]
*Year: 2023
*Genre: Blackened Gothic/Doom Metal
*Country: Norway (IMG:http://metalarea.org/forum/style_images/flags/Norway.png)
*Format: flac
*Size: 101MB

Tracklist:
1. Dooms Vain 07:03
2. Where All Is Dark 06:24
******************************
Total playing time: 13:27


metal-archives

Extended info
Line - up:

Asgeir Holm - Drums (track 2)
Haavard Holm - Guitars (track 2)
Erlend Holm - Guitars, Bass (Legiones, ex-Vinterheim, ex-The Embraced (live), ex-Vandød, ex-Bloodthorn)
Cecilie Langlie - Vocals (track 2) (Caoimhín, Omit, Skumring, ex-Vagrant God, Dævvskævv, Havnatt, ex-Fallen, ex-Mandylion, ex-Glade)
Hallstein Wold - Drums, Piano (track 1)
R.H - Vocals (track 1) (Ilhalung, Legiones, ex-Vinterheim)

Track 1: Recorded in 2004.
Track 2: Recorded between 2006-2007.


Technical info
(IMG:http://metalarea.org/images/spectrogram/2023_Feb/1a560dd97b6d9a9f7a7b52baabb05aae.png)
Input File: 01 Dooms Vain.flac
Channels : 2
Sample Rate : 44100
Precision : 16-bit
Duration : 00:07:03.65 = 18683136 samples = 31774 CDDA sectors
File Size : 51.7M
Bit Rate : 975k
Sample Encoding: 16-bit FLAC
Comments :
Album Artist=Dooms Vain
Date=2004
Artist=Dooms Vain
Title=Dooms Vain
TrackNumber=1
Album=Demo
Genre=Doom Metal
Description=



Register


Go to the top of the page
  Insert nick Quick quote
+Quote Post

Reply to this topicStart new topic
2 User(s) are reading this topic (2 Guests and 0 Anonymous Users)
0 Members:

 



- Lo-Fi Version Support form
Copyrights and abuse reports form
Time is now: 23rd March 2023 - 12:56:19