Welcome Guest ( Log In | Register )

Объявления

* gmail.com упорно продолжает считать почту с нас "unsolicited" и отбивает в том числе и письма активации, поэтому просьба использовать альтернативные почтовые ящики.
------------
* gmail.com continues reject all mail from us as "unsolicited" (activation mails too) therefore please use alternate mail servers.
> Skinflint - Hate Spell (2023), Heavy Metal
post Feb 16 2023, 13:53:17
Post #1

Правь статус, ####!111
**************
Group: Металариец
Posts: 35,941
Releases: 26785
From: Г.Харьков
On Forums: 12 years 2 weeks
Thanks: 581048 time(s)
Ukraine


(IMG:https://metalarea.org/images/audiocovers/2023_Feb/acov_tid376753_thumb.jpg)

*Artist: Skinflint
*Album: Hate Spell
*Year: 2023
*Genre: Heavy Metal
*Country: Botswana (IMG:https://metalarea.org/forum/style_images/flags/Botswana.png)
*Format: mp3@CBR320kbps
*Size: 156MB

Tracklist:
1. Intro 01:17
2. Bloody Quills 06:07
3. Sasabonsam 07:18
4. Hate Spell 06:41
5. Blood Dripping from Torso to Toes 04:23
6. Shape Shifter 05:43
7. Mankind Creation 04:14
8. Eloko 07:41
9. Witch Haunting 05:30
10. Spirit Board 06:56
11. Conquest 06:11
12. Juju King 05:55
******************************
Total playing time: 1:07:56



Extended info
Kebonye Nkoloso Bass
Giuseppe Sbrana Vocals, Guitars
Cosmos Modisaemang Drums


Technical info
(IMG:https://metalarea.org/images/spectrogram/2023_Feb/d24a16d0a0e346b6a72f5e5747323640.png)
Input File: 08 - Eloko.mp3
Channels : 2
Sample Rate : 44100
Precision : 16-bit
Duration : 00:07:41.93 = 20370893 samples = 34644.4 CDDA sectors
File Size : 18.6M
Bit Rate : 322k
Sample Encoding: MPEG audio (layer I, II or III)
Comments :
Title=Eloko
Artist=Skinflint
Album=Hate Spell
Tracknumber=8/12
Year=2023



Register


Go to the top of the page
  Insert nick Quick quote
+Quote Post
 
Start new topic
Replies (1 - 5)
post Feb 16 2023, 22:12:16
Post #2

Совки, гулаги, дефициты
***********
Group: Металариец
Posts: 1,915
Releases: 0
From: Беларусь, Минск
On Forums: 16 years 10 months
Thanks: 950 time(s)
Belarus


Хэви-метал ли это? Музычка интересная, перемешано, но не моё.
Go to the top of the page
  Insert nick Quick quote
+Quote Post
post Feb 16 2023, 22:19:21
Post #3

Шесть Литров
******
Group: Металариец
Posts: 687
Releases: 0
From: Москва
On Forums: 17 years 7 months
Thanks: 157 time(s)
Russian Federation


Веселая концепция "Нанял итальянец двух негров за пару бананов, выдав им одну футболку на двоих" на практике обернулась посмешищем.
Go to the top of the page
  Insert nick Quick quote
+Quote Post
post Feb 17 2023, 01:11:24
Post #4

Совки, гулаги, дефициты
***********
Group: Металариец
Posts: 1,915
Releases: 0
From: Беларусь, Минск
On Forums: 16 years 10 months
Thanks: 950 time(s)
Belarus


ЦИТАТА(Сварог Барг @ 17th February 2023 - 00:19:21) *
Нанял итальянец двух негров

А вдруг они его наняли? Чтоб белой мордой в Ботсване посветить...
Go to the top of the page
  Insert nick Quick quote
+Quote Post
post Feb 17 2023, 16:51:12
Post #5

? ? ? ? ? ? ?
********
Group: Металариец
Posts: 833
Releases: 25
On Forums: 17 years 3 months
Thanks: 636 time(s)
Russian Federation


ЦИТАТА(andreikun @ 17th February 2023 - 00:12:16) *
но не моё

Невероятно интересная информация.


Thanks:
Go to the top of the page
  Insert nick Quick quote
+Quote Post
post Mar 12 2023, 08:52:44
Post #6

Перевозчик
**************
Group: Металариец
Posts: 3,626
Releases: 0
On Forums: 15 years 10 months
Thanks: 802 time(s)
Russian Federation


ЦИТАТА(Сварог Барг @ Feb 17 2023, 00:19:21) *
Нанял итальянец двух негров за пару бананов, выдав им одну футболку на двоих

А кто сказал, что их двое? (IMG:style_emoticons/default/1488.gif)
Go to the top of the page
  Insert nick Quick quote
+Quote Post

Reply to this topicStart new topic
2 User(s) are reading this topic (2 Guests and 0 Anonymous Users)
0 Members:

 



- Lo-Fi Version Support form
Copyrights and abuse reports form
Time is now: 26th May 2024 - 09:39:54