Welcome Guest ( Log In | Register )

Объявления

* gmail.com упорно продолжает считать почту с нас "unsolicited" и отбивает в том числе и письма активации, поэтому просьба использовать альтернативные почтовые ящики.
------------
* gmail.com continues reject all mail from us as "unsolicited" (activation mails too) therefore please use alternate mail servers.

> 

Здесь релизы с живыми прямыми ссылками на lossless

> Finster - Antipatriarchal [ep] (2023), Crossover/Crust
post Feb 19 2023, 19:34:22
Post #1

Правь статус, ####!111
**************
Group: Металариец
Posts: 7,723
Releases: 7063
From: Одесса
On Forums: 16 years 1 month
Thanks: 82395 time(s)
Ukraine


(IMG:http://metalarea.org/images/audiocovers/2023_Feb/acov_tid376943_thumb.jpg)

*Artist: Finster
*Album: Antipatriarchal [ep]
*Year: 2023
*Genre: Crossover/Crust
*Country: Austria (IMG:http://metalarea.org/forum/style_images/flags/Austria.png)
*Format: flac
*Size: 113MB

Tracklist:
1. Resistance 04:12
2. Antipatriarchal 03:46
3. Shity City 03:14
4. Warrior 03:15
5. Where's my brain? 00:13
******************************
Total playing time: 14:40




Extended info
FLAC RIP

Lime - up:

Bob - Bass
Gyzmo - Drums
Anna Vidal - Vocals, Guitars Abisme, Perennial Isolation (live), ex-Khaos Origin, ex-Inhuman Creation, ex-Immorgon)

A Vienna-based hardcore death crust band that dedicated their first album to honoring, and expanding the voice of the Mexican feminist movement and their fierce activist work for women's rights.

Today, Vita Detestabilis and Fiadh Productions are so happy to be able to give ‘Antipatriarchal’ the shape of a CD and continue supporting the feminist fight.

Part of the physical proceeds will be donated to Body, a Fondo Semillas program that seeks to guarantee access to health and physical and emotional integrity, as well as to eradicate structural sexist violence.

semillas.org.mx/en/programs/body/


Notes on the artwork:

"The artwork is based on a picture from an unknown Mexican feminist protester on the 8th of March 2022. The picture shows the door of the Palacio de Gobierno de Monterrey, Nuevo León, México in flames. On a sign it can be read: “Que el privilegio no te nuble..” - “May the privilege not cloud you..”.

México is one of the places where femininicides and kidnapping of girls strike on a harrowing regular basis with total impunity, and where the feminist resistance is neededly and beautifully fierce. Their resistance has been an inspiration of courage, and of the possibility that another world is possible, even though we will need to fight as hard as the Mexican feminists.

On Antipatriarchal it can also be read “No perdonamos, ni olvidamos” from an iconic painting and motto on the occupied Mexico’s National Human Rights Commission (NHRC) building in 2020 by the members of the El bloque negro anarcofeminist group. This building was then transformed into a shelter for women. Symbolic and required act upon so much impune violence against women.

With this, we want to honor the Mexican feminist fight and expand their eco and courageous spirit across wherever we reach."


Technical info
(IMG:http://metalarea.org/images/spectrogram/2023_Feb/f68574cecfa5c7908bed7345ff3527aa.png)
Input File: 04 Warrior.flac
Channels : 2
Sample Rate : 44100
Precision : 16-bit
Duration : 00:03:15.57 = 8624850 samples = 14668.1 CDDA sectors
File Size : 24.1M
Bit Rate : 985k
Sample Encoding: 16-bit FLAC
Comments :
TrackNumber=4
Comment=Visit https://https://vitadetestabilisrecords.bandcamp.com
Genre=Death Metal | Crust
Album Artist=Finster
Artist=Finster
Title=Warrior
Date=2022
Album=Antipatriarchal (EP)
Description=Visit https://https://vitadetestabilisrecords.bandcamp.com



Register


Thanks:
Go to the top of the page
  Insert nick Quick quote
+Quote Post
 
Start new topic
Replies (1 - 1)
post Jul 10 2024, 08:24:08
Post #2

Правь статус, ####!111
**************
Group: Металариец
Posts: 2,896
Releases: 429
From: Bretagne
On Forums: 16 years 2 months
Thanks: 5395 time(s)
France


excelent feminist metallic crust/punk (IMG:style_emoticons/default/19.gif) (IMG:style_emoticons/default/19.gif)

and it's "name your price" on bandcamp (IMG:style_emoticons/default/19.gif) (IMG:style_emoticons/default/19.gif)


Go to the top of the page
  Insert nick Quick quote
+Quote Post

Reply to this topicStart new topic
2 User(s) are reading this topic (2 Guests and 0 Anonymous Users)
0 Members:

 



- Lo-Fi Version Support form
Copyrights and abuse reports form
Time is now: 24th July 2024 - 10:18:28