Welcome Guest ( Log In | Register )

> Perky Macabre - Licking The Taint Of Hell [ep] (2021), Grindcore (D229)
post Feb 20 2023, 15:23:30
Post #1

Serial Uploader
Group Icon
Group: V.I.P
Posts: 42,408
Releases: 40477
From: Lithuania
On Forums: 15 years 10 months
Thanks: 517038 time(s)
Lithuania


(IMG:https://metalarea.org/images/audiocovers/2023_Feb/acov_tid376984_thumb.jpg)

*Artist: Perky Macabre
*Album: Licking The Taint Of Hell [ep]
*Year: 2021
*Genre: Grindcore
*Country: United States (IMG:https://metalarea.org/forum/style_images/flags/United%20States.png)
*Format: mp3@CBR320kbps
*Size: 8MB

Tracklist:
1. Licking The Taint Of Hell 00:48
2. Radioactive Skeletons 00:14
3. All Is Sodomy 00:38
4. Bael 00:24
5. My Inner Voice Hates Me 00:21
6. Bodily Death 00:27
******************************
Total playing time: 2:52



Technical info
(IMG:https://metalarea.org/images/spectrogram/2023_Feb/863f092ce8128f4501b5c1b887d4c214.png)
Input File: Perky Macabre - Licking The Taint Of Hell - 02 Radioactive Skeletons.mp3
Channels : 2
Sample Rate : 44100
Precision : 16-bit
Duration : 00:00:14.55 = 641655 samples = 1091.25 CDDA sectors
File Size : 752k
Bit Rate : 414k
Sample Encoding: MPEG audio (layer I, II or III)
Comments :
Title=Radioactive Skeletons
Artist=Perky Macabre
Album=Licking The Taint Of Hell
Tracknumber=2
Year=2021



Register


Thanks:
Go to the top of the page
  Insert nick Quick quote
+Quote Post
 
Start new topic
Replies (1 - 4)
post Feb 21 2023, 06:29:20
Post #2

gazing the void
****
Group: Металариец
Posts: 347
Releases: 6
On Forums: 6 years 11 months
Thanks: 385 time(s)
Zimbabwe


какой-то знакомый царь на обложке (IMG:style_emoticons/default/hmm.gif)


Thanks:
(1) necroscum,
Go to the top of the page
  Insert nick Quick quote
+Quote Post
post Feb 21 2023, 13:42:32
Post #3

Три Литра
***
Group: Завсегдатай
Posts: 288
Releases: 0
On Forums: 6 years 4 months
Thanks: 117 time(s)
Russian Federation


ЦИТАТА(Shadechaser @ 21st February 2023 - 12:29:20) *
какой-то знакомый царь на обложке

Хороший царь и знакомая вонь. (с)
Go to the top of the page
  Insert nick Quick quote
+Quote Post
post Feb 21 2023, 16:52:16
Post #4

De Mysteriis Dom Sathanas
**************
Group: Металариец
Posts: 4,790
Releases: 64
From: Doom
On Forums: 15 years 9 months
Thanks: 4253 time(s)
Russian Federation


А ведь два человека все это качают (IMG:style_emoticons/default/1488.gif)
Go to the top of the page
  Insert nick Quick quote
+Quote Post
post Feb 21 2023, 17:09:36
Post #5

Serial Uploader
Group Icon
Group: V.I.P
Posts: 42,408
Releases: 40477
From: Lithuania
On Forums: 15 years 10 months
Thanks: 517038 time(s)
Lithuania


QUOTE(RUSP73 @ Feb 21 2023, 19:52:16) *
А ведь два человека все это качают (IMG:style_emoticons/default/1488.gif)


А я ещё и слушаю. На бендкампе... (IMG:style_emoticons/default/fear.gif)
Go to the top of the page
  Insert nick Quick quote
+Quote Post

Reply to this topicStart new topic
1 User(s) are reading this topic (1 Guests and 0 Anonymous Users)
0 Members:

 



- Lo-Fi Version Support form
Copyrights and abuse reports form
Time is now: 19th April 2024 - 21:54:58