Welcome Guest ( Log In | Register )

Объявления

* gmail.com упорно продолжает считать почту с нас "unsolicited" и отбивает в том числе и письма активации, поэтому просьба использовать альтернативные почтовые ящики.
------------
* gmail.com continues reject all mail from us as "unsolicited" (activation mails too) therefore please use alternate mail servers.
> Frostshock - Frostshock (2023), Thrash Metal
post Feb 23 2023, 16:09:25
Post #1

Правь статус, ####!111
**************
Group: Металариец
Posts: 36,199
Releases: 26987
From: Г.Харьков
On Forums: 12 years 1 month
Thanks: 586369 time(s)
Ukraine


(IMG:https://metalarea.org/images/audiocovers/2023_Feb/acov_tid377163_thumb.jpg)

*Artist: Frostshock
*Album: Frostshock
*Year: 2023
*Genre: Thrash Metal
*Country: Germany (IMG:https://metalarea.org/forum/style_images/flags/Germany.png)
*Format: mp3@CBR320kbps
*Size: 114MB

Tracklist:
01. Ein Sturm Zieht Auf
02. The Serpent Inside
03. Morbus Influencer
04. Demolition Of Dignity
05. Bludgeoned
06. Begraben Im Eis
07. A Weapon Called Time
08. Frostshock
09. Worn Out
10. Angrist
11. Putrefaction Of The Soul
******************************
Total playing time: 49:41



Extended info


Technical info
(IMG:https://metalarea.org/images/spectrogram/2023_Feb/34a125008e16ed8fea7dcd59c4c6aaf5.png)
Input File: 07 - A Weapon Called Time.mp3
Channels : 2
Sample Rate : 44100
Precision : 16-bit
Duration : 00:05:09.10 = 13631354 samples = 23182.6 CDDA sectors
File Size : 12.5M
Bit Rate : 323k
Sample Encoding: MPEG audio (layer I, II or III)
Comments :
Title=A Weapon Called Time
Artist=Frostshock
Album=Frostshock
Tracknumber=7/11
Year=2023



Register


Go to the top of the page
  Insert nick Quick quote
+Quote Post
 
Start new topic
Replies (1 - 5)
post Feb 23 2023, 18:10:54
Post #2

_ - = # Thrashogolic # = - _ ... а давайте поржём все вместе
**************
Group: Металариец
Posts: 22,636
Releases: 4444
From: 404
On Forums: 14 years 5 days
Thanks: 29272 time(s)
Ukraine


Хмм, а этого Frost♂COCK♂ ещё нету на metal-archives
Go to the top of the page
  Insert nick Quick quote
+Quote Post
post Feb 23 2023, 21:31:51
Post #3

MDM-Thrash Metal
**************
Group: Металариец
Posts: 12,496
Releases: 1745
From: Одесса
On Forums: 16 years 10 months
Thanks: 40508 time(s)
Ukraine



Очень даже неплохо! (IMG:style_emoticons/default/metaler.gif)



Thanks:
(1) Evrom,
Go to the top of the page
  Insert nick Quick quote
+Quote Post
post Feb 23 2023, 22:15:38
Post #4

Три Литра
***
Group: Завсегдатай
Posts: 225
Releases: 0
On Forums: 9 years 7 months
Thanks: 48 time(s)
Unknown


Какой же это трэш?

Мелодэт, он и есть мелодэт... адовый ор и тремоло бесконечные...


Thanks:
(1) Andrew,
Go to the top of the page
  Insert nick Quick quote
+Quote Post
post Mar 19 2023, 19:43:07
Post #5

MDM-Thrash Metal
**************
Group: Металариец
Posts: 12,496
Releases: 1745
From: Одесса
On Forums: 16 years 10 months
Thanks: 40508 time(s)
Ukraine



Очень добротный альбус. А стилистика действительно мелодет. (IMG:style_emoticons/default/20.gif)


Thanks:
Go to the top of the page
  Insert nick Quick quote
+Quote Post
post Jul 14 2023, 16:49:42
Post #6

к приему виски готов
*********
Group: Металариец
Posts: 957
Releases: 3
From: Украина
On Forums: 15 years 3 months
Thanks: 565 time(s)
Ukraine


понравился альбом, энергичный, быстрый, в меру агрессивный. Без претензий на шедевр, но слушать приятно.
Go to the top of the page
  Insert nick Quick quote
+Quote Post

Reply to this topicStart new topic
1 User(s) are reading this topic (1 Guests and 0 Anonymous Users)
0 Members:

 



- Lo-Fi Version Support form
Copyrights and abuse reports form
Time is now: 20th June 2024 - 11:05:30