Welcome Guest ( Log In | Register )

> Mortal Dismay - Until Death (2023), Thrash/Death Metal
post Mar 1 2023, 12:46:53
Post #1

Правь статус, ####!111
**************
Group: Металариец
Posts: 35,607
Releases: 26502
From: Г.Харьков
On Forums: 11 years 11 months
Thanks: 572850 time(s)
Ukraine


(IMG:https://metalarea.org/images/audiocovers/2023_Mar/acov_tid377480_thumb.jpg)

*Artist: Mortal Dismay
*Album: Until Death
*Year: 2023
*Genre: Thrash/Death Metal
*Country: Russian Federation (IMG:https://metalarea.org/forum/style_images/flags/Russian%20Federation.png)
*Format: mp3@CBR320kbps
*Size: 62MB

Tracklist:
1. Disease
2. Until Death
3. Bloodshed
4. Jacob's Ladder
5. Buried
6. Hunting Down
7. In the End
8. Traffic Fumes
9. The Valley of Cut Heads
******************************
Total playing time: 26:37


Preview 2

Extended info
Georgy Pashkov Drums
Ilya Radik Bass (2021-present)
Dmitry Molotov Guitars (2021-present)
See also: Hellraiser, Rose of Steel, Путь Солнца
Anna Nikulnikova Vocals (2021-present)



Technical info
(IMG:https://metalarea.org/images/spectrogram/2023_Mar/4a4c2bdc35c6b54c3059e538695e7143.png)
Input File: 08 - Traffic Fumes.mp3
Channels : 2
Sample Rate : 44100
Precision : 16-bit
Duration : 00:03:44.87 = 9916943 samples = 16865.5 CDDA sectors
File Size : 9.11M
Bit Rate : 324k
Sample Encoding: MPEG audio (layer I, II or III)
Comments :
Title=Traffic Fumes
Artist=Mortal Dismay
Album=Until Death
Tracknumber=8/9
Year=2023



Register


Go to the top of the page
  Insert nick Quick quote
+Quote Post
 
Start new topic
Replies (1 - 1)
post Mar 2 2023, 00:47:47
Post #2

Правь статус, ####!111
**************
Group: Металариец
Posts: 35,607
Releases: 26502
From: Г.Харьков
On Forums: 11 years 11 months
Thanks: 572850 time(s)
Ukraine


FLAC (Tracks) 205 mb
Register


Thanks:
Go to the top of the page
  Insert nick Quick quote
+Quote Post

Reply to this topicStart new topic
1 User(s) are reading this topic (1 Guests and 0 Anonymous Users)
0 Members:

 



- Lo-Fi Version Support form
Copyrights and abuse reports form
Time is now: 19th April 2024 - 22:21:33