Welcome Guest ( Log In | Register )

> 

Здесь релизы с живыми прямыми ссылками на lossless

> Hematoma - Relentless Barbarism [demo] (2023), Raw Death/Black Metal (D4)
post Mar 2 2023, 17:43:24
Post #1

Правь статус, ####!111
**************
Group: Металариец
Posts: 6,097
Releases: 5584
From: Одесса
On Forums: 14 years 9 months
Thanks: 65415 time(s)
Ukraine


(IMG:http://metalarea.org/images/audiocovers/2023_Mar/acov_tid377541_thumb.jpg)

*Artist: Hematoma
*Album: Relentless Barbarism [demo]
*Year: 2023
*Genre: Raw Death/Black Metal
*Country: United States (IMG:http://metalarea.org/forum/style_images/flags/United%20States.png)
*Format: flac
*Size: 118MB

Tracklist:
1. Intro (Painful Obsession) 02:26
2. Morbid Foetal Necromancy 03:57
3. Schaphization of Swine 01:44
4. Noxious Crucifix 01:37
5. Blood Enema 01:52
6. Immolating the Seraphim 02:02
7. Eugenicide 02:09
8. Satanic Blood (Von cover) 02:15
******************************
Total playing time: 18:02



Extended info
FLAC RIP


Technical info
(IMG:http://metalarea.org/images/spectrogram/2023_Mar/97b65ab84da1eb5be0d393fdf8c60c9d.png)
Input File: 02 Morbid Foetal Necromancy.flac
Channels : 2
Sample Rate : 44100
Precision : 16-bit
Duration : 00:03:57.55 = 10476156 samples = 17816.6 CDDA sectors
File Size : 26.9M
Bit Rate : 905k
Sample Encoding: 16-bit FLAC
Comments :
Album Artist=HEMATOMA
Date=2023
Artist=Hematoma
Title=Morbid Foetal Necromancy
TrackNumber=2
Album=Relentless Barbarism (Demo)
Genre=Death | Black Metal
Description=



Register


Go to the top of the page
  Insert nick Quick quote
+Quote Post
 
Start new topic
Replies (1 - 1)
post Mar 3 2023, 15:32:42
Post #2

Group: Дух
Posts: 1
Releases: 0
From: Thai
On Forums: 2 weeks 5 days
Thanks: 0 time(s)
Thailand


thxx (IMG:style_emoticons/default/smile1.gif)
Go to the top of the page
  Insert nick Quick quote
+Quote Post

Reply to this topicStart new topic
2 User(s) are reading this topic (2 Guests and 0 Anonymous Users)
0 Members:

 



- Lo-Fi Version Support form
Copyrights and abuse reports form
Time is now: 23rd March 2023 - 12:34:12