Welcome Guest ( Log In | Register )

 
Reply to this topicStart new topic
> Décryptal - Sabazios Culte [demo] (2023), Death Metal
post Mar 17 2023, 00:56:21
Post #1

Правь статус, ####!111
**************
Group: Металариец
Posts: 35,117
Releases: 26118
From: Г.Харьков
On Forums: 11 years 9 months
Thanks: 562146 time(s)
Ukraine


(IMG:https://metalarea.org/images/audiocovers/2023_Mar/acov_tid378222_thumb.jpg)

*Artist: Décryptal
*Album: Sabazios Culte [demo]
*Year: 2023
*Genre: Death Metal
*Country: Canada (IMG:https://metalarea.org/forum/style_images/flags/Canada.png)
*Format: mp3@CBR320kbps
*Size: 47MB

Tracklist:
1. Pendu par Phobethor 04:18
2. Virulence Ectoplasmique 03:54
3. Les Barques Volantes de Sarnath 03:16
4. Flétrissement 04:06
5. Sabazios Culte 04:18
******************************
Total playing time: 19:52




Technical info
(IMG:https://metalarea.org/images/spectrogram/2023_Mar/66780e7511b219f23c2f1bfdf2d6daf0.png)
Input File: 05 - Sabazios Culte.mp3
Channels : 2
Sample Rate : 44100
Precision : 16-bit
Duration : 00:04:18.00 = 11377800 samples = 19350 CDDA sectors
File Size : 10.5M
Bit Rate : 325k
Sample Encoding: MPEG audio (layer I, II or III)
Comments :
Title=Sabazios Culte
Artist=Décryptal
Album=Sabazios Culte Demo
Tracknumber=5
Year=2023-03-17
Genre=Rock
Discnumber=1



Register


Go to the top of the page
  Insert nick Quick quote
+Quote Post

Reply to this topicStart new topic
1 User(s) are reading this topic (1 Guests and 0 Anonymous Users)
0 Members:

 



- Lo-Fi Version Support form
Copyrights and abuse reports form
Time is now: 3rd March 2024 - 06:56:16