Welcome Guest ( Log In | Register )

 
Reply to this topicStart new topic
> Crystal Somnia - Breaking The Silence (2022), Death/Thrash Metal
post Mar 17 2023, 01:50:42
Post #1

Правь статус, ####!111
**************
Group: Металариец
Posts: 35,117
Releases: 26118
From: Г.Харьков
On Forums: 11 years 9 months
Thanks: 562156 time(s)
Ukraine


(IMG:https://metalarea.org/images/audiocovers/2023_Mar/acov_tid378224_thumb.jpg)

*Artist: Crystal Somnia
*Album: Breaking The Silence
*Year: 2022
*Genre: Death/Thrash Metal
*Country: Spain (IMG:https://metalarea.org/forum/style_images/flags/Spain.png)
*Format: mp3@CBR320kbps
*Size: 102MB

Tracklist:
1. Weight of Words 06:41
2. The Monster I've Become 04:33
3. Coward 06:43
4. Murum Charta 09:31
5. Deceiver 05:55
6. Cold War 07:15
7. The Philosopher (Death cover) 03:55
******************************
Total playing time: 44:33




Extended info
Diego Sánchez Guitars
Víctor B. Tarela Unknown
See also: Strikeback


Technical info
(IMG:https://metalarea.org/images/spectrogram/2023_Mar/5a06389d0ec2817f9490be8dbe1b4f88.png)
Input File: 03 - Coward.mp3
Channels : 2
Sample Rate : 44100
Precision : 16-bit
Duration : 00:06:42.00 = 17728200 samples = 30150 CDDA sectors
File Size : 16.2M
Bit Rate : 323k
Sample Encoding: MPEG audio (layer I, II or III)
Comments :
Title=Coward
Artist=Crystal Somnia
Album=Breaking The Silence
Tracknumber=3
Year=2022-11-04
Genre=Metal
Discnumber=1



Register


Go to the top of the page
  Insert nick Quick quote
+Quote Post

Reply to this topicStart new topic
1 User(s) are reading this topic (1 Guests and 0 Anonymous Users)
0 Members:

 



- Lo-Fi Version Support form
Copyrights and abuse reports form
Time is now: 3rd March 2024 - 07:39:29