Welcome Guest ( Log In | Register )

> Releases Upload / Добавление релизов

Добавить релиз тут / Click here to add release
Рекомендованные обменники / Recommended file shares

 
Reply to this topicStart new topic
> The Kingdom Of Peace - Everybody Dies Alone (2023), Black/Doom Metal (D5)
post Mar 18 2023, 04:44:05
Post #1

Правь статус, ####!111
**************
Group: Металариец
Posts: 5,294
Releases: 3706
On Forums: 12 years 4 months
Thanks: 66059 time(s)
Russian Federation


(IMG:https://metalarea.org/images/audiocovers/2023_Mar/acov_tid378277_thumb.jpg)

*Artist: The Kingdom Of Peace
*Album: Everybody Dies Alone
*Year: 2023
*Genre: Black/Doom Metal
*Country: Poland (IMG:https://metalarea.org/forum/style_images/flags/Poland.png)
*Format: mp3@CBR320kbps
*Size: 119MB

Tracklist:
1.It Is Gone 08:02
2.Broken Hope 07:30
3.Odium 01:31
4.The Most Beautiful Lie 08:20
5.Nothome 07:06
6.For What I Die 18:41
******************************
Total playing time: 51:10



Technical info
(IMG:https://metalarea.org/images/spectrogram/2023_Mar/9fa1d4e8ca7c4e9d009655222147f600.png)
Input File: 2.Broken Hope.mp3
Channels : 2
Sample Rate : 44100
Precision : 16-bit
Duration : 00:07:30.95 = 19887027 samples = 33821.5 CDDA sectors
File Size : 18.4M
Bit Rate : 326k
Sample Encoding: MPEG audio (layer I, II or III)
Comments :
Title=Broken Hope
Artist=The Kingdom of Peace
Album=Everybody Dies Alone
Tracknumber=2/6
Year=2023
Discnumber=1/1



Register


Go to the top of the page
  Insert nick Quick quote
+Quote Post

Reply to this topicStart new topic
2 User(s) are reading this topic (2 Guests and 0 Anonymous Users)
0 Members:

 



- Lo-Fi Version Support form
Copyrights and abuse reports form
Time is now: 23rd March 2023 - 12:33:04