Welcome Guest ( Log In | Register )

> Releases Upload / Добавление релизов

Добавить релиз тут / Click here to add release
Рекомендованные обменники / Recommended file shares

 
Reply to this topicStart new topic
> Daemonlust - His Vast Coldness (2023), Black Metal (D4)
post Mar 18 2023, 04:59:05
Post #1

Правь статус, ####!111
**************
Group: Металариец
Posts: 5,294
Releases: 3706
On Forums: 12 years 4 months
Thanks: 66060 time(s)
Russian Federation


(IMG:https://metalarea.org/images/audiocovers/2023_Mar/acov_tid378279_thumb.jpg)

*Artist: Daemonlust
*Album: His Vast Coldness
*Year: 2023
*Genre: Black Metal
*Country: Finland (IMG:https://metalarea.org/forum/style_images/flags/Finland.png)
*Format: mp3@VBR257kbps
*Size: 81MB

Tracklist:
1.In the Shadows of Misery (Intro) 02:25
2.Spiritus Incognito 04:59
3.Ihmisyyden tuolla puolen 05:44
4.In the Light of the Spirit 06:59
5.His Vast Coldness 06:05
6.Beastlike Insanity 05:03
7.I Am Sulfur 04:51
8.Human Dignity Crucified 09:02
******************************
Total playing time: 45:08

(IMG:https://metalarea.org/images/youtube.png)

Extended info
Scene CD Rip


Technical info
(IMG:https://metalarea.org/images/spectrogram/2023_Mar/fc820f950f4e60f43e9c3ab07af930aa.png)
Input File: 02-daemonlust-spiritus_incognito.mp3
Channels : 2
Sample Rate : 44100
Precision : 16-bit
Duration : 00:04:59.36 = 13201776 samples = 22452 CDDA sectors
File Size : 9.34M
Bit Rate : 250k
Sample Encoding: MPEG audio (layer I, II or III)
Comments :
Title=Spiritus Incognito
Artist=Daemonlust
Album=His Vast Coldness
Tracknumber=2/8
Year=2023-00-00
Genre=Black Metal



Register


Go to the top of the page
  Insert nick Quick quote
+Quote Post

Reply to this topicStart new topic
2 User(s) are reading this topic (2 Guests and 0 Anonymous Users)
0 Members:

 



- Lo-Fi Version Support form
Copyrights and abuse reports form
Time is now: 23rd March 2023 - 12:57:37