Welcome Guest ( Log In | Register )

> Releases Upload / Добавление релизов

Добавить релиз тут / Click here to add release
Рекомендованные обменники / Recommended file shares

 
Reply to this topicStart new topic
> Perky Macabre - Flowers For The Rotting Dead [ep] (2022), Grindcore (D289)
post Mar 18 2023, 15:19:53
Post #1

Serial Uploader
Group Icon
Group: V.I.P
Posts: 39,896
Releases: 38009
From: Lithuania
On Forums: 14 years 9 months
Thanks: 478159 time(s)
Lithuania


(IMG:https://metalarea.org/images/audiocovers/2023_Mar/acov_tid378297_thumb.jpg)

*Artist: Perky Macabre
*Album: Flowers For The Rotting Dead [ep]
*Year: 2022
*Genre: Grindcore
*Country: United States (IMG:https://metalarea.org/forum/style_images/flags/United%20States.png)
*Format: mp3@CBR320kbps
*Size: 8MB

Tracklist:
1. Molten Human Experience 01:19
2. Tangy Worms 00:37
3. Nestled In The Curdled Womb 00:40
4. Born Into A Putrid Garden 00:26
******************************
Total playing time: 3:02



Technical info
(IMG:https://metalarea.org/images/spectrogram/2023_Mar/998b2b81027d8ca5530727452f7943e8.png)
Input File: Perky Macabre - Flowers For The Rotting Dead - 02 Tangy Worms.mp3
Channels : 2
Sample Rate : 44100
Precision : 16-bit
Duration : 00:00:37.25 = 1642813 samples = 2793.9 CDDA sectors
File Size : 1.63M
Bit Rate : 351k
Sample Encoding: MPEG audio (layer I, II or III)
Comments :
Title=Tangy Worms
Artist=Perky Macabre
Album=Flowers For The Rotting Dead
Tracknumber=2
Year=2022



Register


Thanks:
Go to the top of the page
  Insert nick Quick quote
+Quote Post

Reply to this topicStart new topic
3 User(s) are reading this topic (3 Guests and 0 Anonymous Users)
0 Members:

 



- Lo-Fi Version Support form
Copyrights and abuse reports form
Time is now: 23rd March 2023 - 12:45:06