Welcome Guest ( Log In | Register )

> 

Здесь релизы с живыми прямыми ссылками на lossless

 
Reply to this topicStart new topic
> Die High - Truckin' Hell [ep] (2023), Stoner Metal
post Mar 18 2023, 17:22:40
Post #1

Правь статус, ####!111
**************
Group: Металариец
Posts: 6,097
Releases: 5584
From: Одесса
On Forums: 14 years 9 months
Thanks: 65413 time(s)
Ukraine


(IMG:http://metalarea.org/images/audiocovers/2023_Mar/acov_tid378307_thumb.jpg)

*Artist: Die High
*Album: Truckin' Hell [ep]
*Year: 2023
*Genre: Stoner Metal
*Country: United States (IMG:http://metalarea.org/forum/style_images/flags/United%20States.png)
*Format: flac
*Size: 60MB

Tracklist:
1. Where the Fuck is My Truck!!! 03:54
2. Truckin' Hell 04:30
******************************
Total playing time: 8:24



Extended info
These songs are a direct result of my truck being stolen and the rage that encumbered me.


Technical info
(IMG:http://metalarea.org/images/spectrogram/2023_Mar/a83a2cfb2ef95efb40be966ce66f58a9.png)
Input File: 02 TRUCKIN\' HELL.flac
Channels : 2
Sample Rate : 44100
Precision : 16-bit
Duration : 00:04:30.38 = 11923615 samples = 20278.3 CDDA sectors
File Size : 30.8M
Bit Rate : 912k
Sample Encoding: 16-bit FLAC
Comments :
Genre=Stoner Metal
Album=Truckin' Hell (EP)
Date=2023
Artist=Die High
Album Artist=DIE HIGH
Title=TRUCKIN' HELL
TrackNumber=2
Description=



Register


Go to the top of the page
  Insert nick Quick quote
+Quote Post

Reply to this topicStart new topic
1 User(s) are reading this topic (1 Guests and 0 Anonymous Users)
0 Members:

 



- Lo-Fi Version Support form
Copyrights and abuse reports form
Time is now: 22nd March 2023 - 22:53:22