Welcome Guest ( Log In | Register )

Объявления

* gmail.com упорно продолжает считать почту с нас "unsolicited" и отбивает в том числе и письма активации, поэтому просьба использовать альтернативные почтовые ящики.
------------
* gmail.com continues reject all mail from us as "unsolicited" (activation mails too) therefore please use alternate mail servers.
 
Reply to this topicStart new topic
> Trup - Nie (2022), Black/Death Metal/Sludge
post Mar 18 2023, 20:50:17
Post #1

Правь статус, 616
**************
Group: Металариец
Posts: 10,990
Releases: 8946
From: 55°35’N 38°08’E
On Forums: 16 years 6 days
Thanks: 159286 time(s)
Russian Federation


(IMG:https://metalarea.org/images/audiocovers/2023_Mar/acov_tid378313_thumb.jpg)

*Artist: Trup
*Album: Nie
*Year: 2022
*Genre: Black/Death Metal/Sludge
*Country: Poland (IMG:https://metalarea.org/forum/style_images/flags/Poland.png)
*Format: mp3@CBR320kbps
*Size: 73MB

Tracklist:
1. 29 04:30
2. 30 01:59
3. 31 07:07
4. Nie 05:46
5. 33 12:12
******************************
Total playing time: 31:34



(IMG:https://metalarea.org/images/youtube.png)

Technical info
(IMG:https://metalarea.org/images/spectrogram/2023_Mar/3cbe030cbb84e8285050b3c88681e9cb.png)
Input File: 01 29.mp3
Channels : 2
Sample Rate : 44100
Precision : 16-bit
Duration : 00:04:30.65 = 11935489 samples = 20298.5 CDDA sectors
File Size : 10.9M
Bit Rate : 323k
Sample Encoding: MPEG audio (layer I, II or III)
Comments :
Title=29
Artist=TRUP
Album=NIE
Tracknumber=1
Year=2022
Genre=Black/Death Metal



Register


Go to the top of the page
  Insert nick Quick quote
+Quote Post
post Mar 19 2023, 09:51:03
Post #2

Аннигилятор пивА
Group Icon
Group: V.I.P
Posts: 52,571
Releases: 16538
From: Koenigsberg - TILZIT
On Forums: 18 years 1 month
Thanks: 372055 time(s)
Russian Federation


Хорошо, но мало, еще минут на 30 бы учитывая, что последний 12 минутный трэк по большей части нойзовый эмбиент с небольшими мрачными дум вкраплениями
Go to the top of the page
  Insert nick Quick quote
+Quote Post

Reply to this topicStart new topic
1 User(s) are reading this topic (1 Guests and 0 Anonymous Users)
0 Members:

 



- Lo-Fi Version Support form
Copyrights and abuse reports form
Time is now: 13th July 2024 - 04:55:49