Welcome Guest ( Log In | Register )

Объявления

* gmail.com упорно продолжает считать почту с нас "unsolicited" и отбивает в том числе и письма активации, поэтому просьба использовать альтернативные почтовые ящики.
------------
* gmail.com continues reject all mail from us as "unsolicited" (activation mails too) therefore please use alternate mail servers.
 
Reply to this topicStart new topic
> Umbrío - Proclamación Al Vórtice De Los Tiempos (2023), Atmospheric Black Metal
post Mar 19 2023, 07:25:00
Post #1

Правь статус, ####!111
**************
Group: Металариец
Posts: 8,956
Releases: 7194
On Forums: 13 years 6 months
Thanks: 126804 time(s)
Italy


(IMG:https://metalarea.org/images/audiocovers/2023_Mar/acov_tid378322_thumb.jpg)

*Artist: Umbrío
*Album: Proclamación Al Vórtice De Los Tiempos
*Year: 2023
*Genre: Atmospheric Black Metal
*Country: Chile (IMG:https://metalarea.org/forum/style_images/flags/Chile.png)
*Format: mp3@CBR320kbps
*Size: 109MB

Tracklist:
1.Introducción 02:26
2.Parte 1 07:10
3.Interludio 01:40
4.Parte 2 04:44
5.Parte 3 06:20
6.Parte 4 03:57
7.Interludio 2 01:51
8.Parte 5 - (In)Conclusión 19:10
******************************
Total playing time: 47:18



Technical info
(IMG:https://metalarea.org/images/spectrogram/2023_Mar/2cd4f9e2c4e2c11b91885c480e303c05.png)
Input File: 7.Interludio 2.mp3
Channels : 2
Sample Rate : 44100
Precision : 16-bit
Duration : 00:01:51.08 = 4898672 samples = 8331.07 CDDA sectors
File Size : 4.69M
Bit Rate : 338k
Sample Encoding: MPEG audio (layer I, II or III)
Comments :
Title=Interludio 2
Artist=Umbrio
Album=Proclamación al Vórtice de los Tiempos
Tracknumber=7/8
Year=2023
Discnumber=1/1



Register


Go to the top of the page
  Insert nick Quick quote
+Quote Post

Reply to this topicStart new topic
1 User(s) are reading this topic (1 Guests and 0 Anonymous Users)
0 Members:

 



- Lo-Fi Version Support form
Copyrights and abuse reports form
Time is now: 28th May 2024 - 17:41:37