Welcome Guest ( Log In | Register )

 
Reply to this topicStart new topic
> No One Alive - Don't Leave Your Child Alone (2023), Heavy Metal
post Mar 19 2023, 07:43:23
Post #1

Правь статус, ####!111
**************
Group: Металариец
Posts: 7,007
Releases: 5313
On Forums: 12 years 10 months
Thanks: 91802 time(s)
Italy


(IMG:https://metalarea.org/images/audiocovers/2023_Mar/acov_tid378323_thumb.jpg)

*Artist: No One Alive
*Album: Don't Leave Your Child Alone
*Year: 2023
*Genre: Heavy Metal
*Country: Spain (IMG:https://metalarea.org/forum/style_images/flags/Spain.png)
*Format: mp3@CBR320kbps
*Size: 115MB

Tracklist:
1.Don't Leave Your Child Alone 01:52
2.Come to My Rise 05:04
3.Shout 05:30
4.The Boogeyman 05:13
5.A Reason Why? 06:09
6.Till Death Do Us Part 05:17
7.Last Chance 05:31
8.So Alone 05:15
9.A Trip to Your Life 08:25
******************************
Total playing time: 48:16

(IMG:https://metalarea.org/images/youtube.png)

Technical info
(IMG:https://metalarea.org/images/spectrogram/2023_Mar/447f1251c317a0e9a1ac0a36745964d5.png)
Input File: 2.Come to My Rise.mp3
Channels : 2
Sample Rate : 44100
Precision : 16-bit
Duration : 00:05:04.09 = 13410149 samples = 22806.4 CDDA sectors
File Size : 12.7M
Bit Rate : 334k
Sample Encoding: MPEG audio (layer I, II or III)
Comments :
Title=Come to My Rise
Artist=No One Alive
Album=Don't Leave Your Child Alone
Tracknumber=2/9
Year=2023
Discnumber=1/1



Register


Go to the top of the page
  Insert nick Quick quote
+Quote Post

Reply to this topicStart new topic
1 User(s) are reading this topic (1 Guests and 0 Anonymous Users)
0 Members:

 



- Lo-Fi Version Support form
Copyrights and abuse reports form
Time is now: 26th September 2023 - 13:17:42