Welcome Guest ( Log In | Register )

 
Reply to this topicStart new topic
> Råmpage - Asgard (2023), Heavy/Progressive Power Metal (D13)
post Mar 19 2023, 08:05:31
Post #1

Правь статус, ####!111
**************
Group: Металариец
Posts: 6,107
Releases: 4456
On Forums: 12 years 6 months
Thanks: 77406 time(s)
Italy


(IMG:https://metalarea.org/images/audiocovers/2023_Mar/acov_tid378325_thumb.jpg)

*Artist: Råmpage
*Album: Asgard
*Year: 2023
*Genre: Heavy/Progressive Power Metal
*Country: Brazil (IMG:https://metalarea.org/forum/style_images/flags/Brazil.png)
*Format: mp3@CBR320kbps
*Size: 126MB

Tracklist:
1.Prayer for Tyr 05:31
2.Sigurd (Black Circle) 06:10
3.Eye of the Storm 06:23
4.Bifrost 02:54
5.Asgard 06:13
6.Berserker 05:03
7.The Hammer of the Glory 05:22
8.The Night Blade Feeds 06:27
9.Thor (God of Thunder) 04:24
10.Prince of Persia 05:16
******************************
Total playing time: 53:43

(IMG:https://metalarea.org/images/youtube.png)
(IMG:https://metalarea.org/images/youtube.png)

Technical info
(IMG:https://metalarea.org/images/spectrogram/2023_Mar/8ea5413d33d41228e5740a971b818685.png)
Input File: 9.Thor (God of Thunder).mp3
Channels : 2
Sample Rate : 44100
Precision : 16-bit
Duration : 00:04:24.79 = 11677415 samples = 19859.5 CDDA sectors
File Size : 11.1M
Bit Rate : 334k
Sample Encoding: MPEG audio (layer I, II or III)
Comments :
Title=Thor (God of Thunder)
Artist=Rampage
Album=Asgard
Tracknumber=9/10
Year=2023
Discnumber=1/1



Register


Go to the top of the page
  Insert nick Quick quote
+Quote Post

Reply to this topicStart new topic
1 User(s) are reading this topic (1 Guests and 0 Anonymous Users)
0 Members:

 



- Lo-Fi Version Support form
Copyrights and abuse reports form
Time is now: 3rd June 2023 - 12:31:20