Welcome Guest ( Log In | Register )

> Releases Upload / Добавление релизов

Добавить релиз тут / Click here to add release
Рекомендованные обменники / Recommended file shares

 
Reply to this topicStart new topic
> Arcadian Alone - Instrumental Sin [ep] (2023), Instrumental/Melodic Death Metal/Metalcore
post Mar 19 2023, 09:31:01
Post #1

Слесарь 6-го разряда.
*****
Group: Металариец
Posts: 483
Releases: 230
From: Беларусь, Минск.
On Forums: 11 years 3 months
Thanks: 2060 time(s)
Belarus


(IMG:https://metalarea.org/images/audiocovers/2023_Mar/acov_tid378351_thumb.jpg)

*Artist: Arcadian Alone
*Album: Instrumental Sin [ep]
*Year: 2023
*Genre: Instrumental/Melodic Death Metal/Metalcore
*Country: Germany (IMG:https://metalarea.org/forum/style_images/flags/Germany.png)
*Format: mp3@CBR320kbps
*Size: 54MB

Tracklist:
1. One Abyss 03:54
2. Two Ascensions 09:05
3. Three Auras 02:25
4. Four Apocalypses 05:17
******************************
Total playing time: 20:41



Technical info
(IMG:https://metalarea.org/images/spectrogram/2023_Mar/245e44ed989072861cc27690606ef163.png)
Input File: Arcadian Alone - Instrumental Sin - 01 One Abyss.mp3
Channels : 2
Sample Rate : 44100
Precision : 16-bit
Duration : 00:03:54.64 = 10347800 samples = 17598.3 CDDA sectors
File Size : 9.58M
Bit Rate : 326k
Sample Encoding: MPEG audio (layer I, II or III)
Comments :
Title=One Abyss
Artist=Arcadian Alone
Album=Instrumental Sin
Tracknumber=1
Year=2023



Register


Thanks:
Go to the top of the page
  Insert nick Quick quote
+Quote Post

Reply to this topicStart new topic
1 User(s) are reading this topic (1 Guests and 0 Anonymous Users)
0 Members:

 



- Lo-Fi Version Support form
Copyrights and abuse reports form
Time is now: 23rd March 2023 - 11:57:44