Welcome Guest ( Log In | Register )

> Releases Upload / Добавление релизов

Добавить релиз тут / Click here to add release
Рекомендованные обменники / Recommended file shares

 
Reply to this topicStart new topic
> Souffrance - Souffrance [ep] (2023), Depressive Black Metal
post Mar 19 2023, 09:36:22
Post #1

Слесарь 6-го разряда.
*****
Group: Металариец
Posts: 483
Releases: 230
From: Беларусь, Минск.
On Forums: 11 years 3 months
Thanks: 2060 time(s)
Belarus


(IMG:https://metalarea.org/images/audiocovers/2023_Mar/acov_tid378352_thumb.jpg)

*Artist: Souffrance
*Album: Souffrance [ep]
*Year: 2023
*Genre: Depressive Black Metal
*Country: Canada (IMG:https://metalarea.org/forum/style_images/flags/Canada.png)
*Format: mp3@CBR320kbps
*Size: 38MB

Tracklist:
1. Introspection 02:08
2. Souffrance 03:23
3. Démence 03:45
4. Asphyxie 02:46
5. Délivrance 01:48
******************************
Total playing time: 13:50



Technical info
(IMG:https://metalarea.org/images/spectrogram/2023_Mar/53d22952bb5c0ba4b854364e2c841a9d.png)
Input File: Souffrance - S-T - 01 Introspection.mp3
Channels : 2
Sample Rate : 44100
Precision : 16-bit
Duration : 00:02:08.06 = 5647402 samples = 9604.43 CDDA sectors
File Size : 5.38M
Bit Rate : 336k
Sample Encoding: MPEG audio (layer I, II or III)
Comments :
Title=Introspection
Artist=Souffrance
Album=S/T
Tracknumber=1
Year=2023



Register


Go to the top of the page
  Insert nick Quick quote
+Quote Post

Reply to this topicStart new topic
2 User(s) are reading this topic (2 Guests and 0 Anonymous Users)
0 Members:

 



- Lo-Fi Version Support form
Copyrights and abuse reports form
Time is now: 23rd March 2023 - 11:34:59