Welcome Guest ( Log In | Register )

 
Reply to this topicStart new topic
> Vocation - Hate Your Enemy [demo] (1993), Thrash Metal
post Mar 24 2023, 13:01:59
Post #1

Подвал
**************
Group: Металариец
Posts: 18,983
Releases: 10878
From: Far East (Khabarovsk)
On Forums: 14 years 4 months
Thanks: 128106 time(s)
Russian Federation


(IMG:http://metalarea.org/images/audiocovers/2023_Mar/acov_tid378586_thumb.jpg)

*Artist: Vocation
*Album: Hate Your Enemy [demo]
*Year: 1993
*Genre: Thrash Metal
*Country: Germany (IMG:http://metalarea.org/forum/style_images/flags/Germany.png)
*Format: mp3@CBR320kbps
*Size: 48MB

Tracklist:
1. Hate Your Enemy 04:50
2. Torture In My Brain 05:13
3. I Think About It 04:13
4. Help Me 06:35
******************************
Total playing time: 20:51

Technical info
(IMG:http://metalarea.org/images/spectrogram/2023_Mar/8b7ce8070a54140c6db4cb50dacc6eb9.png)
Input File: 01-Hate Your Enemy.mp3
Channels : 2
Sample Rate : 44100
Precision : 16-bit
Duration : 00:04:50.42 = 12807610 samples = 21781.6 CDDA sectors
File Size : 11.8M
Bit Rate : 324k
Sample Encoding: MPEG audio (layer I, II or III)
Comments :
Title=Hate Your Enemy
Artist=Vocation
Album=Hate Your Enemy (Demo)
Tracknumber=01
Year=1993
Genre=Thrash Metal



Register


Go to the top of the page
  Insert nick Quick quote
+Quote Post

Reply to this topicStart new topic
2 User(s) are reading this topic (2 Guests and 0 Anonymous Users)
0 Members:

 



- Lo-Fi Version Support form
Copyrights and abuse reports form
Time is now: 7th June 2023 - 09:50:53