Welcome Guest ( Log In | Register )

 
Reply to this topicStart new topic
> Morblack - Locus Terra (2021), Black Metal
post Mar 24 2023, 21:17:34
Post #1

пью тока пиво
******
Group: Металариец
Posts: 570
Releases: 185
On Forums: 17 years 1 month
Thanks: 1182 time(s)
Russian Federation


(IMG:https://metalarea.org/images/audiocovers/2023_Mar/acov_tid378618_thumb.jpg)

*Artist: Morblack
*Album: Locus Terra
*Year: 2021
*Genre: Black Metal
*Country: Russian Federation (IMG:https://metalarea.org/forum/style_images/flags/Russian%20Federation.png)
*Format: mp3@CBR320kbps
*Size: 102MB

Tracklist:
1. Я Morblack 03:50
2. Слуга ты мой и дом моя ты тьма 04:25
3. Морок 07:15
4. Голлум 05:20
5. Locus Terra 04:20
6. Мразь 07:55
7. Отрок 05:05
8. Погребенный 06:35
******************************
Total playing time: 44:45

Preview 1

Extended info
Morblack - сольный проект бас гитариста краснодарской блэк метал группы ЧерноявЬ. В своём творчестве Morblack сочетает элементы старого доброго true black metal, depressive и atmospheric. Идея создания пришла в марте 2017 года, (родоначальником стал альбом Executor - Холод обречения смерти) но сам процесс её реализации сильно затягивался из за отсутствия людей, с которыми можно было бы воплотить все задуманное в реальность. И вот в 2020 году Morblack обретает своего соратника, второй вокал и автора текстов в лице Is. Переезжает в Москву и проект обретает новую жизнь. Вскоре рьяно подключается в коллектив Noise.


Technical info
(IMG:https://metalarea.org/images/spectrogram/2023_Mar/856aa8acdd1881eb96846a59f47af957.png)
Input File: 04. Голлум.mp3
Channels : 2
Sample Rate : 44100
Precision : 16-bit
Duration : 00:05:20.07 = 14115043 samples = 24005.2 CDDA sectors
File Size : 12.8M
Bit Rate : 320k
Sample Encoding: MPEG audio (layer I, II or III)
Comments :
Title=Голлум
Artist=Morblack
Album=Locus Terra
Tracknumber=04
Year=2021
Genre=Black Metal



Register


Go to the top of the page
  Insert nick Quick quote
+Quote Post

Reply to this topicStart new topic
2 User(s) are reading this topic (2 Guests and 0 Anonymous Users)
0 Members:

 



- Lo-Fi Version Support form
Copyrights and abuse reports form
Time is now: 24th February 2024 - 10:02:22