Welcome Guest ( Log In | Register )

> Mean Green - Mean Green (2023), Stoner/Doom Metal
post Mar 26 2023, 08:31:09
Post #1

Правь статус, ####!111
**************
Group: Металариец
Posts: 7,459
Releases: 6827
From: Одесса
On Forums: 15 years 10 months
Thanks: 79466 time(s)
Ukraine


(IMG:http://metalarea.org/images/audiocovers/2023_Mar/acov_tid378701_thumb.jpg)

*Artist: Mean Green
*Album: Mean Green
*Year: 2023
*Genre: Stoner/Doom Metal
*Country: United States (IMG:http://metalarea.org/forum/style_images/flags/United%20States.png)
*Format: mp3@CBR320kbps
*Size: 98MB

Tracklist:
1. Law 03:45
2. Crow 06:42
3. Mean Green 08:02
4. Fiend 04:19
5. Last Bullet 06:47
6. Grease Monkey 03:53
7. The Deal 07:25
******************************
Total playing time: 40:53



Extended info
Line - up:

Alex Wierback - Bass (ex-One Armed Jefferson)
James Matthews - Drums (ex-One Armed Jefferson)
Jake Helms - Guitars, Vocals (ex-One Armed Jefferson)

Mean Green’s self-titled first release is a full length album consisting of songs written in their first year of the band's forming. Mean Green wrote this album to convey a stripped down and bare bones look at sludge, stoner, and doom metal. Relying heavily on tone and a slow moving freight train like tempo for most of their songs, they bring their own twist on the genre. With crushing guitar tone, wall shaking low end, bludgeoning percussion, and growling vocals, this album is a first look into the roots and inspiration of Mean Green.


Technical info
(IMG:http://metalarea.org/images/spectrogram/2023_Mar/13d59bb0e6157a4f2a8f6b5f1e5d36b0.png)
Input File: 05. Last Bullet.mp3
Channels : 2
Sample Rate : 44100
Precision : 16-bit
Duration : 00:06:48.08 = 17996504 samples = 30606.3 CDDA sectors
File Size : 16.3M
Bit Rate : 320k
Sample Encoding: MPEG audio (layer I, II or III)
Comments :
Title=Last Bullet
Artist=Mean Green
Album=Mean Green
Tracknumber=5
Year=2023
Genre=Stoner | Doom Metal



Register


Go to the top of the page
  Insert nick Quick quote
+Quote Post
 
Start new topic
Replies (1 - 4)
post Mar 26 2023, 10:59:22
Post #2

Правь статус, ####!111
**************
Group: Металариец
Posts: 55,786
Releases: 1187
On Forums: 14 years 10 months
Thanks: 54520 time(s)
Russian Federation


Сытнейше-жирнейший сладж-стоунер в духе Bongzilla, Weedeater - качающие риффы, блюзовые соло и едко-ехидно-глумливо-хриплый вокал. Манна и услада для ушей. Несмотря на вторичность (ребята прямо говорят, что это - дань кумирам), сабж не звучит избито и вторично, а, просто - как надо, канонично.

Хорошо, что подобный дельный, с душой записанный воршып продолжают выпускать.
Go to the top of the page
  Insert nick Quick quote
+Quote Post
post Apr 14 2023, 20:41:31
Post #3

Маньяк
**********
Group: Металариец
Posts: 1,021
Releases: 0
From: South Of Heaven
On Forums: 16 years 8 months
Thanks: 473 time(s)
Ukraine


первый трек самый аппетитный однако (IMG:style_emoticons/default/18.gif)
релизёру вери сенкс (IMG:style_emoticons/default/9.gif) (IMG:style_emoticons/default/9.gif)
Go to the top of the page
  Insert nick Quick quote
+Quote Post
post Apr 22 2023, 12:23:26
Post #4

Маньяк
**********
Group: Металариец
Posts: 1,227
Releases: 10
From: Нижегородская губерния
On Forums: 14 years 7 months
Thanks: 2839 time(s)
Russian Federation


From SceneFLAC.org:
Register
Go to the top of the page
  Insert nick Quick quote
+Quote Post
post May 26 2023, 05:55:12
Post #5

i listen to black metal
**************
Group: Металариец
Posts: 4,062
Releases: 150
From: Москва
On Forums: 17 years 4 months
Thanks: 2626 time(s)
Russian Federation


вокалиста заменить
Go to the top of the page
  Insert nick Quick quote
+Quote Post

Reply to this topicStart new topic
1 User(s) are reading this topic (1 Guests and 0 Anonymous Users)
0 Members:

 



- Lo-Fi Version Support form
Copyrights and abuse reports form
Time is now: 21st April 2024 - 13:33:18