Welcome Guest ( Log In | Register )

Объявления

* gmail.com упорно продолжает считать почту с нас "unsolicited" и отбивает в том числе и письма активации, поэтому просьба использовать альтернативные почтовые ящики.
------------
* gmail.com continues reject all mail from us as "unsolicited" (activation mails too) therefore please use alternate mail servers.
> Black Sea Of Trees - The Spiritual Beast (2023), Dark/Progressive Metal
post Mar 26 2023, 11:56:00
Post #1

Правь статус, ####!111
**************
Group: Металариец
Posts: 9,310
Releases: 7539
On Forums: 13 years 8 months
Thanks: 133319 time(s)
Italy


(IMG:https://metalarea.org/images/audiocovers/2023_Mar/acov_tid378713_thumb.jpg)

*Artist: Black Sea Of Trees
*Album: The Spiritual Beast
*Year: 2023
*Genre: Dark/Progressive Metal
*Country: Australia (IMG:https://metalarea.org/forum/style_images/flags/Australia.png)
*Format: mp3@CBR320kbps
*Size: 161MB

Tracklist:
1.Prologue 01:19
2.The Pursuing Darkness 05:20
3.Company of Corpses 04:35
4.Possession 08:09
5.Domination 07:04
6.Ghost 05:01
7.Witching 01:44
8.Over the Dunes 07:09
9.The Spiritual Beast 06:14
10.The Demon's Name is Mine 08:15
11.Contended Heart 02:37
12.Fire, Flesh, Sand & Self 08:16
13.Desert Hymn 03:27
******************************
Total playing time: 1:09:10



Technical info
(IMG:https://metalarea.org/images/spectrogram/2023_Mar/e9cfb1a4e590a1b99ef98810934145ec.png)
Input File: 3.Company of Corpses.mp3
Channels : 2
Sample Rate : 44100
Precision : 16-bit
Duration : 00:04:35.74 = 12160134 samples = 20680.5 CDDA sectors
File Size : 11.3M
Bit Rate : 329k
Sample Encoding: MPEG audio (layer I, II or III)
Comments :
Title=Company of Corpses
Artist=Black Sea of Trees
Album=The Spiritual Beast
Tracknumber=3/13
Year=2023
Discnumber=1/1



Register


Go to the top of the page
  Insert nick Quick quote
+Quote Post
 
Start new topic
Replies (1 - 5)
post Mar 26 2023, 12:48:28
Post #2

Don't be negative.
**************
Group: Металариец
Posts: 2,970
Releases: 776
From: Earthmother
On Forums: 13 years 10 months
Thanks: 10559 time(s)
Ukraine


Очень достойный прог\пост-метал, даже не ожидал, свежо звучит, грамотная смесь из олдскула и современных течений метала, много мелодики.


Thanks:
(1) Kitalter,
Go to the top of the page
  Insert nick Quick quote
+Quote Post
post Mar 26 2023, 13:02:54
Post #3
BAN
Banned till
Aug 13 273792724, 19:46:46



По превьюхам звучит как замес из Nefilim и Cynic, но с большим креном в какой-то женский поп-метал.
Противоречиво. Надо переслушать.
Go to the top of the page
  Insert nick Quick quote
+Quote Post
post Mar 26 2023, 15:51:18
Post #4
BAN
Banned till
Mar 16 273792724, 20:02:19



spbfucker, даже не Циник как мне показалось а Тессеракт времён первых ипих.
Go to the top of the page
  Insert nick Quick quote
+Quote Post
post Mar 26 2023, 23:42:54
Post #5
BAN
Banned till
Mar 26 273792725, 23:06:17



Какая-то занудная пижня с редкими разрозненными проблесками


Thanks:
Go to the top of the page
  Insert nick Quick quote
+Quote Post
post Mar 27 2023, 00:21:33
Post #6
BAN
Banned till
Aug 13 273792724, 19:46:46



ЦИТАТА(PepeMetal @ Mar 26 2023, 15:51:18) *
spbfucker, даже не Циник как мне показалось а Тессеракт времён первых ипих.

Я за ними не слежу, мимо меня прошли в основном. Но таки да, сходство явное.
Go to the top of the page
  Insert nick Quick quote
+Quote Post

Reply to this topicStart new topic
2 User(s) are reading this topic (2 Guests and 0 Anonymous Users)
0 Members:

 



- Lo-Fi Version Support form
Copyrights and abuse reports form
Time is now: 23rd July 2024 - 06:03:15