Welcome Guest ( Log In | Register )

Объявления

* gmail.com упорно продолжает считать почту с нас "unsolicited" и отбивает в том числе и письма активации, поэтому просьба использовать альтернативные почтовые ящики.
------------
* gmail.com continues reject all mail from us as "unsolicited" (activation mails too) therefore please use alternate mail servers.
> Inframonolithium - Gods Of Desolation (2023), Funeral Doom Metal (D4)
post Mar 29 2023, 16:46:37
Post #1

Правь статус, ####!111
**************
Group: Металариец
Posts: 7,721
Releases: 7059
From: Одесса
On Forums: 16 years 1 month
Thanks: 82355 time(s)
Ukraine


(IMG:http://metalarea.org/images/audiocovers/2023_Mar/acov_tid378845_thumb.jpg)

*Artist: Inframonolithium
*Album: Gods Of Desolation
*Year: 2023
*Genre: Funeral Doom Metal
*Country: Belgium (IMG:http://metalarea.org/forum/style_images/flags/Belgium.png)
*Format: mp3@CBR320kbps
*Size: 119MB

Tracklist:
1. One Who Once Dreamt 07:50
2. One Who Prays to the Void 15:34
3. One Who Waits for Death 17:15
4. And One Mired in Sorrow 09:08
******************************
Total playing time: 49:47



Extended info
Line - up:

Stijn Van Cauter - Everything (Arcane Voidsplitter, Beyond Black Void, Desperandum Gothica, Gruulvoqh, The Ethereal, The NULLL Collective, Until Death Overtakes Me, ex-In Somnis, ex-The Sad Sun, Catnoms for Fluffy, Fall of the Grey-Winged One, Vita Dolorosa, ex-Solicide, ex-Wijlen Wij, ex-Cold Aeon, ex-Dance Nihil, ex-Dreams of Dying Stars, ex-Forbidden Fields, ex-I Dream No More, ex-In the Mist, ex-Organium, ex-Tear Your Soul Apart)

Meet the Gods of Desolation, perpetually chained to their empty domains.


Technical info
(IMG:http://metalarea.org/images/spectrogram/2023_Mar/d8322451cfd93a1154d83c38174b9bae.png)
Input File: 01. One Who Once Dreamt.mp3
Channels : 2
Sample Rate : 44100
Precision : 16-bit
Duration : 00:07:51.04 = 20772996 samples = 35328.2 CDDA sectors
File Size : 18.9M
Bit Rate : 321k
Sample Encoding: MPEG audio (layer I, II or III)
Comments :
Title=One Who Once Dreamt
Artist=Inframonolithium
Album=Gods of Desolation
Tracknumber=1
Year=2023
Genre=Funeral Doom Metal



Register


Go to the top of the page
  Insert nick Quick quote
+Quote Post
 
Start new topic
Replies (1 - 2)
post Mar 29 2023, 21:00:16
Post #2

Восемь Литров
********
Group: Металариец
Posts: 810
Releases: 0
On Forums: 6 years 5 months
Thanks: 241 time(s)
Belarus


Ну, тут обложка уже показала чего ждать. Красноречивее просто некуда.
Go to the top of the page
  Insert nick Quick quote
+Quote Post
post Mar 29 2023, 22:12:33
Post #3
BAN
Banned till
Mar 26 273792725, 23:06:17



ЦИТАТА(GRAF @ Mar 29 2023, 21:00:16) *
Ну, тут обложка уже показала чего ждать. Красноречивее просто некуда.

Треугольники и песок?!


Thanks:
Go to the top of the page
  Insert nick Quick quote
+Quote Post

Reply to this topicStart new topic
2 User(s) are reading this topic (2 Guests and 0 Anonymous Users)
0 Members:

 



- Lo-Fi Version Support form
Copyrights and abuse reports form
Time is now: 23rd July 2024 - 07:29:28