Welcome Guest ( Log In | Register )

> The Evil - Seven Acts To Apocalypse (2023), Occult Doom/Stoner Metal
post Mar 30 2023, 16:33:55
Post #1

Правь статус, ####!111
**************
Group: Металариец
Posts: 8,670
Releases: 6917
On Forums: 13 years 5 months
Thanks: 121354 time(s)
Italy


(IMG:https://metalarea.org/images/audiocovers/2023_Mar/acov_tid378918_thumb.jpg)

*Artist: The Evil
*Album: Seven Acts To Apocalypse
*Year: 2023
*Genre: Occult Doom/Stoner Metal
*Country: Brazil (IMG:https://metalarea.org/forum/style_images/flags/Brazil.png)
*Format: mp3@CBR320kbps
*Size: 99MB

Tracklist:
1.Voices From The Deep (Intro) 00:33
2.About None Guilty 06:35
3.Screams 06:39
4.Sacrifice To The Evil One 10:26
5.Satan II 05:23
6.Silver Razor 10:19
7.The Ancients 04:14
******************************
Total playing time: 44:09



Extended info
Iossif - Guitars aka Wagner Antichrist
See also: ex-Sarcófago, ex-Sepultura, ex-Cirrhosis, ex-Komando Kaos


Technical info
(IMG:https://metalarea.org/images/spectrogram/2023_Mar/b47ca902d5d151b7ce40494fd5dfe271.png)
Input File: 02 - The Evil - Pride(Explicit).mp3
Channels : 2
Sample Rate : 44100
Precision : 16-bit
Duration : 00:05:01.97 = 13316701 samples = 22647.5 CDDA sectors
File Size : 12.2M
Bit Rate : 323k
Sample Encoding: MPEG audio (layer I, II or III)
Comments :
Title=Pride
Artist=The Evil
Album=Seven Acts To Apocalypse
Tracknumber=2/7
Year=2023
Discnumber=1/1



Register


Go to the top of the page
  Insert nick Quick quote
+Quote Post
 
Start new topic
Replies (1 - 6)
post Mar 30 2023, 18:40:28
Post #2

Правь статус, ####!111
**************
Group: Металариец
Posts: 55,773
Releases: 1187
On Forums: 14 years 10 months
Thanks: 54502 time(s)
Russian Federation


Банальщина с подтыренными у других групп риффами.
Go to the top of the page
  Insert nick Quick quote
+Quote Post
post Mar 30 2023, 22:01:54
Post #3
BAN
Banned till
Aug 13 273792724, 19:46:46



Не скажу за плагиат, не услышал. Сыграно хорошо, заявленный закос под оккульт-роцк на месте, слушать интересно.
надобно с недельку погонять
Go to the top of the page
  Insert nick Quick quote
+Quote Post
post Mar 31 2023, 10:14:19
Post #4
BAN
Banned till
Aug 13 273792724, 19:46:46



В общем, кому как, а мне альбом дичайше зашёл. Покамест в жанре стоунер/психодел/оккульт - в мой персональный топ года заходит прочно.
Тяжёленький, мрачнющий, злой, с фишечками из классического психодела типа Coven - а к ним ещё оперные распевки для украшения. Аранжировки простые, доходчивые - но нифига не скучные. Вокалистка - редкий случай в стоунер - умеет петь, а не бормочет апатично.
Ну и да: в ряде моментов узнаваемы и Black Sabbath, и Candlemass - но это звучит не как плагиат, а как цитирование. Да и странно было бы "красть" настолько растасканное и узнаваемое.
В общем, не Devil's Blood, но поинтереснее Witch Mountain. Явно в загашник и в плейер надолго.


Thanks:
(1) Lux,
Go to the top of the page
  Insert nick Quick quote
+Quote Post
post Apr 2 2023, 06:21:08
Post #5

necrophilosopher
**********
Group: Металариец
Posts: 1,136
Releases: 0
From: Ад-на-Земле
On Forums: 15 years 3 months
Thanks: 1043 time(s)
Uzbekistan


Отличный альбом! Не пента[мат->бан]ево и нарочитое песочное ретро, а реально мрачный дум/стонер.
Однако не знал, что Вагнер снова играет)

ps: Трек-лист в шапке только от прошлого альбома.


Thanks:
(1) spbfucker,
Go to the top of the page
  Insert nick Quick quote
+Quote Post
post Apr 2 2023, 14:57:05
Post #6
BAN
Banned till
Aug 13 273792724, 19:46:46



ЦИТАТА(Lux @ Apr 2 2023, 06:21:08) *
ps: Трек-лист в шапке только от прошлого альбома.

Кстати, да. Альбомчик-то концептуальный: там каждый трек посвящён одному из смертных грехов. Тут - от 2017 треклист.
Go to the top of the page
  Insert nick Quick quote
+Quote Post
post Oct 9 2023, 17:45:57
Post #7

Семь Литров
*******
Group: Металариец
Posts: 778
Releases: 0
From: simferopol
On Forums: 16 years 10 months
Thanks: 377 time(s)
Ukraine


Из традишнл дума пока лучшее что я слышал года за два, очень хороший альбом с мрачной атмосферой и шикарным вокалом, по музыке близко к witchsorrow, с вокалистками windhand и therion (в одном лице)
Go to the top of the page
  Insert nick Quick quote
+Quote Post

Reply to this topicStart new topic
2 User(s) are reading this topic (2 Guests and 0 Anonymous Users)
0 Members:

 



- Lo-Fi Version Support form
Copyrights and abuse reports form
Time is now: 19th April 2024 - 22:46:34