Welcome Guest ( Log In | Register )

> Reverorum Ib Malacht - Emet Amen (2023), Experimental Black Metal/Dark Ambient (D)
post Apr 8 2023, 14:32:53
Post #1

Правь статус, ####!111
**************
Group: Металариец
Posts: 8,306
Releases: 6560
On Forums: 13 years 3 months
Thanks: 114660 time(s)
Italy


(IMG:https://metalarea.org/images/audiocovers/2023_Apr/acov_tid379498_thumb.jpg)

*Artist: Reverorum Ib Malacht
*Album: Emet Amen
*Year: 2023
*Genre: Experimental Black Metal/Dark Ambient
*Country: Sweden (IMG:https://metalarea.org/forum/style_images/flags/Sweden.png)
*Format: mp3@CBR320kbps
*Size: 165MB

Tracklist:
1.18. Capitel. 06:49
2.Och sedan såg jag en annan Ängel komma ned af himmelen, then stor magt hade; och jorden wardt uplyst af hans klarhet. 07:48
3.Ty hennes synder räcka alt up i himmelen, och Gud hafwer dragit til minnes hennes orättfärdigheter. 11:00
4.så mycket inskänker henne pina och gråt; ty hon säger i sitt hjerta. Jag sitter, och är en Drottning, och icke enka, och hafwer ingen sorg 04:37
5.Therföre skola hennes plågor komma på en dag, död, gråt och hunger; och hon skal warda upbränd i eld; ty HERren Gud är stark, som henne döma skal. 19:40
6.Och canel och timjan och salfwa och rökelse och win och olja och semlor och hwete och boskap och får och hästar och wagnar och kroppar och menniskors själar. 06:32
7.crux sacra sit mihi lux. non draco sit mihi dux; vade retro satana // nunquam suade mihi vana. sunt mala quae libas. ipse venena bibas. 07:15
8..letipaX .81 06:15
******************************
Total playing time: 1:09:56



Technical info
(IMG:https://metalarea.org/images/spectrogram/2023_Apr/93067dc957de887cbcbed73879137e56.png)
Input File: 4SMYCK~1.MP3
Channels : 2
Sample Rate : 44100
Precision : 16-bit
Duration : 00:04:38.04 = 12261520 samples = 20852.9 CDDA sectors
File Size : 11.8M
Bit Rate : 339k
Sample Encoding: MPEG audio (layer I, II or III)
Comments :
Title=så mycket inskänker henne pina och gråt ty hon säger i sitt hjerta. Jag sitter, och är en Drottning, och icke enka, och hafwer ingen sorg
Artist=Reverorum Ib Malacht
Album=Emet Amen : The dark night of the faith
Tracknumber=4/8
Year=2023
Discnumber=1/1



Register


Go to the top of the page
  Insert nick Quick quote
+Quote Post
 
Start new topic
Replies (1 - 5)
post Apr 9 2023, 09:45:25
Post #2

Правь статус, ####!111
**************
Group: Металариец
Posts: 2,952
Releases: 12
On Forums: 16 years 7 months
Thanks: 1734 time(s)
Russian Federation


Очень даже себе.


Thanks:
(1) Occultas,
Go to the top of the page
  Insert nick Quick quote
+Quote Post
post Apr 11 2023, 16:05:12
Post #3

Три Литра
***
Group: Завсегдатай
Posts: 217
Releases: 0
On Forums: 16 years 8 months
Thanks: 150 time(s)
Russian Federation


Грузит и погружает от души. Отлично! P.S. Блэка и металла как такового здесь нет.


Thanks:
(1) Occultas,
Go to the top of the page
  Insert nick Quick quote
+Quote Post
post Apr 11 2023, 17:22:10
Post #4

Group: Подсевший
Posts: 29
Releases: 0
On Forums: 6 years 7 months
Thanks: 7 time(s)
Russian Federation


а еще один релиз у них в этом году выходил
Reuerorum ib Malacht - 2023 - Aieganzes Aigonzis : Angels of God
нету ли?


Thanks:
(1) Occultas,
Go to the top of the page
  Insert nick Quick quote
+Quote Post
post Apr 16 2023, 14:28:29
Post #5

пустое и необозримое
**************
Group: Металариец
Posts: 6,773
Releases: 0
On Forums: 8 years 1 month
Thanks: 4215 time(s)
Russian Federation


херня.


Thanks:
(2) mittal, Vitald,
Go to the top of the page
  Insert nick Quick quote
+Quote Post
post May 13 2023, 11:16:12
Post #6

И всё в тебе, И ты — во всём
**************
Group: Металариец
Posts: 8,467
Releases: 13
On Forums: 14 years 3 months
Thanks: 4308 time(s)
Unknown


ЦИТАТА(kefka @ 8th April 2023 - 16:32:53) *
1.18. Capitel. 06:49
2.Och sedan såg jag en annan Ängel komma ned af himmelen, then stor magt hade; och jorden wardt uplyst af hans klarhet. 07:48
3.Ty hennes synder räcka alt up i himmelen, och Gud hafwer dragit til minnes hennes orättfärdigheter. 11:00
4.så mycket inskänker henne pina och gråt; ty hon säger i sitt hjerta. Jag sitter, och är en Drottning, och icke enka, och hafwer ingen sorg 04:37
5.Therföre skola hennes plågor komma på en dag, död, gråt och hunger; och hon skal warda upbränd i eld; ty HERren Gud är stark, som henne döma skal. 19:40
6.Och canel och timjan och salfwa och rökelse och win och olja och semlor och hwete och boskap och får och hästar och wagnar och kroppar och menniskors själar. 06:32
7.crux sacra sit mihi lux. non draco sit mihi dux; vade retro satana // nunquam suade mihi vana. sunt mala quae libas. ipse venena bibas. 07:15
8..letipaX .81 06:15

боюсь если распакую это на комп случится неладное (IMG:style_emoticons/default/fear.gif)

прим: присоединяюсь к одобрительной конвенции


Thanks:
Go to the top of the page
  Insert nick Quick quote
+Quote Post

Reply to this topicStart new topic
2 User(s) are reading this topic (2 Guests and 0 Anonymous Users)
0 Members:

 



- Lo-Fi Version Support form
Copyrights and abuse reports form
Time is now: 3rd March 2024 - 01:06:05