Welcome Guest ( Log In | Register )

> Misanthropæ - MMXXIII EP [ep] (2023), Blackened Death Metal
post Apr 30 2023, 18:11:48
Post #1

Правь статус, ####!111
**************
Group: Металариец
Posts: 7,293
Releases: 6670
From: Одесса
On Forums: 15 years 9 months
Thanks: 77651 time(s)
Ukraine


(IMG:https://metalarea.org/images/audiocovers/2023_Apr/acov_tid380753_thumb.jpg)

*Artist: Misanthropæ
*Album: MMXXIII EP [ep]
*Year: 2023
*Genre: Blackened Death Metal
*Country: United States (IMG:https://metalarea.org/forum/style_images/flags/United%20States.png)
*Format: mp3@CBR320kbps
*Size: 52MB

Tracklist:
1. Shrine 04:32
2. Depleted 04:43
3. Strung 05:20
4. Fertile 04:08
5. Masticated 03:24
******************************
Total playing time: 22:07



Technical info
(IMG:https://metalarea.org/images/spectrogram/2023_Apr/134a1b1fd7d406a1500481ce8b9dc886.png)
Input File: 05. Masticated.mp3
Channels : 2
Sample Rate : 44100
Precision : 16-bit
Duration : 00:03:24.19 = 9004647 samples = 15314 CDDA sectors
File Size : 8.17M
Bit Rate : 320k
Sample Encoding: MPEG audio (layer I, II or III)
Comments :
Title=Masticated
Artist=Misanthrop?
Album=MMXXIII EP (EP)
Tracknumber=5
Year=2023
Genre=Blackened Death Metal



Register


Go to the top of the page
  Insert nick Quick quote
+Quote Post
 
Start new topic
Replies (1 - 3)
post May 1 2023, 15:43:24
Post #2

Три Литра
***
Group: Завсегдатай
Posts: 217
Releases: 0
On Forums: 16 years 8 months
Thanks: 150 time(s)
Russian Federation


Pustilence, Satyron, Misanthropae... Реально новый тренд. Идиоты.


Thanks:
(2) Deze, Lux,
Go to the top of the page
  Insert nick Quick quote
+Quote Post
post May 31 2023, 10:46:14
Post #3

मृत्यु
**************
Group: Металариец
Posts: 3,453
Releases: 23
On Forums: 13 years 7 months
Thanks: 2245 time(s)
Antarctica


ЦИТАТА(trueandevil @ May 1 2023, 19:43:24) *
Pustilence, Satyron, Misanthropae... Реально новый тренд. Идиоты.

Да и пох. Музяка хорошая. (IMG:style_emoticons/default/20.gif)
Go to the top of the page
  Insert nick Quick quote
+Quote Post
post Jun 2 2023, 11:38:24
Post #4
BAN
Banned till
Mar 17 2024, 02:44:34



Ни хера тут хорошего в музыке нет. Хайпануть на названии и оформуге только и получилось.
Go to the top of the page
  Insert nick Quick quote
+Quote Post

Reply to this topicStart new topic
2 User(s) are reading this topic (2 Guests and 0 Anonymous Users)
0 Members:

 



- Lo-Fi Version Support form
Copyrights and abuse reports form
Time is now: 2nd March 2024 - 23:44:21