Welcome Guest ( Log In | Register )

Объявления

* gmail.com упорно продолжает считать почту с нас "unsolicited" и отбивает в том числе и письма активации, поэтому просьба использовать альтернативные почтовые ящики.
------------
* gmail.com continues reject all mail from us as "unsolicited" (activation mails too) therefore please use alternate mail servers.
> Haissem - Ad Cor Tenebrarum (2023), Melodic Black Metal
post May 4 2023, 21:58:45
Post #1

Правь статус, ####!111
**************
Group: Металариец
Posts: 36,460
Releases: 27188
From: Г.Харьков
On Forums: 12 years 2 months
Thanks: 592719 time(s)
Ukraine


(IMG:https://metalarea.org/images/audiocovers/2023_May/acov_tid380993_thumb.jpg)

*Artist: Haissem
*Album: Ad Cor Tenebrarum
*Year: 2023
*Genre: Melodic Black Metal
*Country: Ukraine (IMG:https://metalarea.org/forum/style_images/flags/Ukraine.png)
*Format: mp3@CBR320kbps
*Size: 143MB

Tracklist:
01. The Amalgam 10:27
02. Arachnid 08:42
03. Ravenant 07:08
04. Agonymph 09:34
05. Cinder 10:01
06. Purgatoreal 15:55
******************************
Total playing time: 1:01:47




Extended info
Andriy Tolok All instruments, Vocals
See also: Sunset Forsaken


Technical info
(IMG:https://metalarea.org/images/spectrogram/2023_May/8bcec173a958e0e0a9a3d9eb83e2eda2.png)
Input File: 03 - Ravenant.mp3
Channels : 2
Sample Rate : 44100
Precision : 16-bit
Duration : 00:07:07.00 = 18830700 samples = 32025 CDDA sectors
File Size : 17.4M
Bit Rate : 326k
Sample Encoding: MPEG audio (layer I, II or III)
Comments :
Title=Ravenant
Artist=Haissem
Album=Ad Cor Tenebrarum
Tracknumber=3
Year=2023-05-05
Genre=Рок
Discnumber=1



Register


Go to the top of the page
  Insert nick Quick quote
+Quote Post
 
Start new topic
Replies (1 - 2)
post Jul 18 2023, 13:35:59
Post #2

Правь статус, ####!111
**************
Group: Металариец
Posts: 2,546
Releases: 6
From: Kyiv
On Forums: 16 years 8 months
Thanks: 331 time(s)
Ukraine


Доволі непогано як для ванменбенда із Донецька.
Go to the top of the page
  Insert nick Quick quote
+Quote Post
post Jul 10 2024, 09:56:51
Post #3

but I'm white and furry
***********
Group: Металариец
Posts: 1,675
Releases: 541
From: Москва
On Forums: 18 years 5 months
Thanks: 7871 time(s)
Russian Federation


Так почему тогда написано, что страна Украина, если он из Донецка? Причём тут какая-то Украина, если на тот момент это уже почти год как Россия?
Go to the top of the page
  Insert nick Quick quote
+Quote Post

Reply to this topicStart new topic
2 User(s) are reading this topic (2 Guests and 0 Anonymous Users)
0 Members:

 



- Lo-Fi Version Support form
Copyrights and abuse reports form
Time is now: 24th July 2024 - 10:33:23