Welcome Guest ( Log In | Register )

> Nemoreus - Orcunadoras - Chapter One: Warrior [ep] (2023), Folk/Black Metal
post May 6 2023, 04:43:06
Post #1

Правь статус, ####!111
**************
Group: Металариец
Posts: 8,309
Releases: 6563
On Forums: 13 years 3 months
Thanks: 114715 time(s)
Italy


(IMG:https://metalarea.org/images/audiocovers/2023_May/acov_tid381084_thumb.jpg)

*Artist: Nemoreus
*Album: Orcunadoras - Chapter One: Warrior [ep]
*Year: 2023
*Genre: Folk/Black Metal
*Country: Austria (IMG:https://metalarea.org/forum/style_images/flags/Austria.png)
*Format: mp3@CBR320kbps
*Size: 24MB

Tracklist:
1.Das Rote Tuch 03:30
2.Give Us Rain 03:12
3.Horns of War 03:35
******************************
Total playing time: 10:17


(IMG:https://metalarea.org/images/youtube.png)

Technical info
(IMG:https://metalarea.org/images/spectrogram/2023_May/1489ef9b2eb6cad0dca562040d3648b6.png)
Input File: 1.Das Rote Tuch.mp3
Channels : 2
Sample Rate : 44100
Precision : 16-bit
Duration : 00:03:30.69 = 9291517 samples = 15801.9 CDDA sectors
File Size : 8.83M
Bit Rate : 335k
Sample Encoding: MPEG audio (layer I, II or III)
Comments :
Title=Das Rote Tuch
Artist=Nemoreus
Album=Orcunadoras, Chapter One: Warrior
Tracknumber=1/3
Year=2023
Discnumber=1/1



Register


Go to the top of the page
  Insert nick Quick quote
+Quote Post
 
Start new topic
Replies (1 - 1)
post May 16 2023, 15:40:34
Post #2

Правь статус, ####!111
**************
Group: Металариец
Posts: 3,132
Releases: 0
On Forums: 15 years 2 weeks
Thanks: 1533 time(s)
South Korea


Thank you, kefka and RunningWild_AT.

For those who may be interested...., their demo (FLAC, 320 kbps, etc.) (NOT this release) , is also currently downloadable on 'name your price' basis:
Go to the top of the page
  Insert nick Quick quote
+Quote Post

Reply to this topicStart new topic
2 User(s) are reading this topic (2 Guests and 0 Anonymous Users)
0 Members:

 



- Lo-Fi Version Support form
Copyrights and abuse reports form
Time is now: 3rd March 2024 - 09:02:45