Welcome Guest ( Log In | Register )

Объявления

* gmail.com упорно продолжает считать почту с нас "unsolicited" и отбивает в том числе и письма активации, поэтому просьба использовать альтернативные почтовые ящики.
------------
* gmail.com continues reject all mail from us as "unsolicited" (activation mails too) therefore please use alternate mail servers.
> Grave Desecrator - Immundissime Spiritus (2023), Death/Black Metal (D)
post May 10 2023, 14:13:05
Post #1

Serial Uploader
Group Icon
Group: V.I.P
Posts: 42,638
Releases: 40702
From: Lithuania
On Forums: 15 years 11 months
Thanks: 521622 time(s)
Lithuania


(IMG:https://metalarea.org/images/audiocovers/2023_May/acov_tid381278_thumb.jpg)

*Artist: Grave Desecrator
*Album: Immundissime Spiritus
*Year: 2023
*Genre: Death/Black Metal
*Country: Brazil (IMG:https://metalarea.org/forum/style_images/flags/Brazil.png)
*Format: mp3@CBR320kbps
*Size: 92MB

Tracklist:
1. Necromantical Hex 04:48
2. Death Misery Ecstasy 03:39
3. Finis Hominis 05:01
4. Missa Pro Defunctis 01:43
5. Fogo Fátuo 04:47
6. Occult Bewitchment 04:40
7. Miasma 02:27
8. Fuck The Dead (GG Allin Cover) 03:57
9. Rapists From The Cross 01:42
10. Whited Sepulchre 07:34
******************************
Total playing time: 40:18

(IMG:https://metalarea.org/images/myspace.png)



(IMG:https://metalarea.org/images/youtube.png)

Technical info
(IMG:https://metalarea.org/images/spectrogram/2023_May/beca20b997a2ba373ea73afb86e1c87a.png)
Input File: 02. Death Misery Ecstasy.mp3
Channels : 2
Sample Rate : 44100
Precision : 16-bit
Duration : 00:03:39.17 = 9665573 samples = 16438 CDDA sectors
File Size : 8.77M
Bit Rate : 320k
Sample Encoding: MPEG audio (layer I, II or III)
Comments :
Title=Death Misery Ecstasy
Artist=Grave Desecrator
Album=Immundissime Spiritus
Tracknumber=02
Year=2023
Genre=Black Metal



Register


Go to the top of the page
  Insert nick Quick quote
+Quote Post
 
Start new topic
Replies (1 - 5)
post May 10 2023, 16:09:10
Post #2

Добрейшей души Мегаманьяк
**************
Group: Металариец
Posts: 2,350
Releases: 0
From: Bashkortostan, Таптыҡ
On Forums: 16 years 3 months
Thanks: 1124 time(s)
Russian Federation


Отлична!!! Эти не подводят! В топ года!


Thanks:
(1) DarkHorde,
Go to the top of the page
  Insert nick Quick quote
+Quote Post
post Jun 10 2023, 10:14:11
Post #3

Правь статус, ####!111
**************
Group: Металариец
Posts: 2,790
Releases: 0
From: APATIN, SERBIA, АПАТИН, СЕРБИЯ
On Forums: 16 years 7 months
Thanks: 8874 time(s)



Flac

Register


Thanks:
Go to the top of the page
  Insert nick Quick quote
+Quote Post
post Jul 23 2023, 22:42:45
Post #4

Маньяк
**********
Group: Металариец
Posts: 1,236
Releases: 0
From: Isla de Margarita, Venezuela
On Forums: 5 years 4 months
Thanks: 394 time(s)
Venezuela


320kbps dead links
Go to the top of the page
  Insert nick Quick quote
+Quote Post
post Aug 10 2023, 03:25:59
Post #5

Пять Литров
*****
Group: Металариец
Posts: 432
Releases: 0
On Forums: 6 years 8 months
Thanks: 28 time(s)
United Nations


QUOTE(metaljosue @ Jul 23 2023, 23:42:45) *
320kbps dead links


[2]
Go to the top of the page
  Insert nick Quick quote
+Quote Post
post Aug 18 2023, 07:36:45
Post #6

Девять Литров
*********
Group: Металариец
Posts: 914
Releases: 0
From: Vilnius
On Forums: 17 years 3 months
Thanks: 377 time(s)
Lithuania


Из сети320kbps


Go to the top of the page
  Insert nick Quick quote
+Quote Post

Reply to this topicStart new topic
2 User(s) are reading this topic (2 Guests and 0 Anonymous Users)
0 Members:

 



- Lo-Fi Version Support form
Copyrights and abuse reports form
Time is now: 30th May 2024 - 20:20:48